Loading...
Error

5000 пальцев доктора Т. / The 5000 Fingers of Dr. T. (Рой Роуланд) [1953 г., семейный, музыкальный, фэнтези, DVDRip] MVO

Статистика раздачи
Размер:  1,49 GB   |    Зарегистрирован:  1 год 2 месяца   |    Скачан:  6 раз

Полного источника не было: 2 дня 15 часов

Сидов:  0  |  0 KB/s  ]   Личеров:  0  |  0 KB/s  ]

* - сиды/пиры с внешних источников

   
 
Автор Сообщение

makkol Пол:Муж

19-Сен-2015 23:51

5000 пальцев доктора Т. / The 5000 Fingers of Dr. T.


Год выпуска: 1953
Жанр: семейный, музыкальный, фэнтези
Страна: США
Режиссер: Рой Роуланд
В ролях: Линд Хэй, Мэри Хили, Ганс Конрид, Томми Реттинг, Джон Хисли, Роберт Хисли, Джордж Чекирис
Сюжет фильма:
Музыкальная сюрреалистическая комедия.
Юный Бартоломью растёт без отца. Мама мальчика желает сделать из сына великого музыканта. Его обучает игре на фортепьяно тщеславный доктор музыки Тельвилекер, который хочет, чтобы его ученики стали великими пианистами и тем самым прославили его имя. Барт ненавидит и Доктора Т., и фортепьяно, и занятия музыкой, он мечтает, чтобы его оставили в покое и позволили быть обычным мальчишкой. Устав от бесконечных занятий он засыпает и переживает удивительные приключения, попутно успевая найти себе папу и избавится от ненавистного мучителя. Проснувшись, Барт с удивлением обнаруживает, что сон, что называется, хоть и частично, но "в руку"...

В 1954 году фильм был номинирован на Оскар в категории «Лучший композитор» (Фредерик Холландер и Моррис Столофф)

  • Мировая премьера: 19 июня 1953


Качество видео: DVDRip

Продолжительность: 01:28:51
Формат: AVI
Видео: XviD, 720x544 (1.32:1), 23.976 fps, 2266 kbps
Аудио: русский, профессиональный многоголосый закадровый, MP3 2.0, 48 kHz, 128 kbps

Код:

5000 пальцев Доктора Т - The 5000 Fingers of Dr. T. [Rip by Ledy_X].avi
Format : AVI
Format/Info : Audio Video Interleave
File size : 1.49 GiB
Duration : 1h 28mn
Overall bit rate : 2 404 Kbps
Movie name : 5000 пальцев Доктора Т - The 5000 Fingers of Dr. T. [Rip by Ledy_X]
Director : Rip by Ledy_X
Writing application : VirtualDubMod 1.5.10.2 (build 2540/release)
Copyright : Edich2
Comment : *другой трекер*

Video
ID : 0
Format : MPEG-4 Visual
Format profile : Advanced Simple@L5
Format settings, BVOP : 1
Format settings, QPel : No
Format settings, GMC : No warppoints
Format settings, Matrix : Custom
Codec ID : XVID
Codec ID/Hint : XviD
Duration : 1h 28mn
Bit rate : 2 266 Kbps
Width : 720 pixels
Height : 544 pixels
Display aspect ratio : 4:3
Frame rate : 23.976 fps
Color space : YUV
Chroma subsampling : 4:2:0
Bit depth : 8 bits
Scan type : Progressive
Compression mode : Lossy
Bits/(Pixel*Frame) : 0.241
Stream size : 1.41 GiB (94%)
Writing library : XviD 1.2.0.dev47 (UTC 2006-11-01)

Audio
ID : 1
Format : MPEG Audio
Format version : Version 1
Format profile : Layer 3
Codec ID : 55
Codec ID/Hint : MP3
Duration : 1h 28mn
Bit rate mode : Constant
Bit rate : 128 Kbps
Channel count : 2 channels
Sampling rate : 48.0 KHz
Compression mode : Lossy
Stream size : 81.4 MiB (5%)
Alignment : Aligned on interleaves
Interleave, duration : 42 ms (1.00 video frame)
Interleave, preload duration : 504 ms
Writing library : LAME3.99r
Encoding settings : -m s -V 4 -q 2 -lowpass 17 -b 128
Rip by Ledy_X
Релиз: Феникс
picpicpicpicpic
Для увеличения картинки щелкните мышкой по превью

Этот торрент недоступен для скачивания без регистрации, однако доступен по публичной magnet-ссылке (источники с публичных трекеров). Перед использованием ссылки прочтите, пожалуйста Пользовательское соглашение, а также как можно дольше оставайтесь на раздаче! Для того, чтобы скачать сам торрент-файл (который видит больше источников), а также для того, чтобы поблагодарить релизера, вам необходимо зарегистрироваться. Если регистрироваться лень - вы можете также попробовать скачать релиз по нашим партнерским ссылкам ниже.

[underverse.su].t58440.torrent
Трекер: Зарегистрирован   [ 19.09.2015 23:51 ]  

Статус: проверено (by makkol at 20.09.2015 08:54)
Поблагодарили: 1 человек
Тип торрента: публичный - доступные источники с открытых трекеров: 
Размер: 1,49 GB (занимает 0,34 DVDR, для записи нужно 1 болванка DVDR/RW)
 
 

Яндекс.Метрика powered by Sphinx


В Н И М А Н И Е
Сайт не распространяет и не хранит электронные версии произведений, а лишь бесплатно и без коммерческой выгоды (не требуя взамен платы,
SMS и т.д.) предоставляет доступ к создаваемому пользователями каталогу ссылок на торрент-файлы, которые содержат только списки хеш-сумм.
Убедительная просьба с жалобами обращаться напрямую к пользователю, разместившему торрент файл.

Вверх