Loading...
Error

Ленни - чудо собака! / Lenny the Wonder Dog (Орен Голдман, Оздоба Ярив) [2005 г., комедия, приключения, семейный, DVDRip] MVO

Статистика раздачи
Размер:  770 MB   |    Зарегистрирован:  1 год 2 месяца   |    Скачан:  6 раз

Полного источника не было: 3 месяца 13 дней

Сидов:  0  |  0 KB/s  ]   Личеров:  0  |  0 KB/s  ]

* - сиды/пиры с внешних источников

   
 
Автор Сообщение

makkol Пол:Муж

19-Сен-2015 12:50

Ленни - чудо собака! / Lenny the Wonder Dog


Год выпуска: 2005
Жанр: комедия, приключения, семейный
Производство: США [Winslow Productions]
Режиссер: Орен Голдман, Оздоба Ярив
В ролях: Майкл Винслоу, Крейг Фергюсон, Сэмми Канн, Эндрю Шайфер
Сюжет фильма:
В городке Ньювилл происходят странные события. Разгромлена лаборатория эксцентричного учёного Доктора Айленда, а его пёс по кличке Ленни исчез. В это же время на другой стороне города Зак Дилан переживает самый плохой день в своей жизни. Высмеянный одноклассниками и отвергнутый Бэкки Грин, он плетётся домой. Проходя по парку, мальчик встречает потерявшегося пса, и решает оставить его себе. Каково же было удивление Зака, когда пёс начинает говорить! За ним охотятся головорезы, и ребёнку с собакой приходится бежать. Кто стоит за этим? Ужасный и гениальный доктор Вагнер, бывший коллега Доктора Айленда… Он методично похищает маленьких детей для своих тайных опытов, решив завладеть целым миром. Ленни и его друзья собираются помешать его страшному замыслу.

  • Мировая премьера: 5 декабря 2005


Качество видео: DVDRip

Продолжительность: 01:19:21
Формат: AVI
Видео: DivX, 720x576 (5:4), 25.000 fps, 1200 kbps
Аудио: русский, профессиональный многоголосый закадровый, MP3 2.0, 48 kHz, 128 kbps

Код:

Общее
Полное имя                               : Lenny.the.Wonder.Dog.2004.avi.DVDRip.avi
Формат                                   : AVI
Формат/Информация                        : Audio Video Interleave
Размер файла                             : 770 Мбайт
Продолжительность                        : 1 ч. 20 м.
Общий поток                              : 1341 Кбит/сек
Программа кодирования                    : Lavf51.12.1

Видео
Идентификатор                            : 0
Формат                                   : MPEG-4 Visual
Профиль формата                          : Simple@L1
Параметр BVOP формата                    : Нет
Параметр QPel формата                    : Нет
Параметр GMC формата                     : Без точки перехода
Параметр матрицы формата                 : Default (H.263)
Идентификатор кодека                     : DX50
Идентификатор кодека/Подсказка           : DivX 5
Продолжительность                        : 1 ч. 20 м.
Битрейт                                  : 1200 Кбит/сек
Ширина                                   : 720 пикселей
Высота                                   : 576 пикселей
Соотношение сторон                       : 5:4
Частота кадров                           : 25,000 кадров/сек
Стандарт вещания                         : PAL
Цветовое пространство                    : YUV
Субдискретизация насыщенности            : 4:2:0
Битовая глубина                          : 8 бит
Тип развёртки                            : Прогрессивная
Метод сжатия                             : С потерями
Бит/(Пиксели*Кадры)                      : 0.116
Размер потока                            : 689 Мбайт (89%)
Библиотека кодирования                   : Lavc51.40.4

Аудио
Идентификатор                            : 1
Формат                                   : MPEG Audio
Версия формата                           : Version 1
Профиль формата                          : Layer 3
Режим                                    : Joint stereo
Идентификатор кодека                     : 55
Идентификатор кодека/Подсказка           : MP3
Продолжительность                        : 1 ч. 20 м.
Вид битрейта                             : Постоянный
Битрейт                                  : 128 Кбит/сек
Каналы                                   : 2 канала
Частота                                  : 48,0 КГц
Метод сжатия                             : С потерями
Размер потока                            : 73,5 Мбайт (10%)
Выравнивание                             : Соединение по промежуткам
Продолжительность промежутка             : 24  мс. (0,60 видеокадр)
Время предзагрузки промежутка            : 24  мс.
picpicpicpicpic
Для увеличения картинки щелкните мышкой по превью

Этот торрент недоступен для скачивания без регистрации, однако доступен по публичной magnet-ссылке (источники с публичных трекеров). Перед использованием ссылки прочтите, пожалуйста Пользовательское соглашение, а также как можно дольше оставайтесь на раздаче! Для того, чтобы скачать сам торрент-файл (который видит больше источников), а также для того, чтобы поблагодарить релизера, вам необходимо зарегистрироваться. Если регистрироваться лень - вы можете также попробовать скачать релиз по нашим партнерским ссылкам ниже.

[underverse.su].t58428.torrent
Трекер: Зарегистрирован   [ 19.09.2015 12:50 ]  

Статус: проверено (by makkol at 19.09.2015 22:06)
Поблагодарили: 2 человека
Тип торрента: публичный - доступные источники с открытых трекеров: 
Размер: 770 MB (занимает 0,17 DVDR, для записи нужно 1 болванка DVDR/RW)
 
 

Яндекс.Метрика powered by Sphinx


В Н И М А Н И Е
Сайт не распространяет и не хранит электронные версии произведений, а лишь бесплатно и без коммерческой выгоды (не требуя взамен платы,
SMS и т.д.) предоставляет доступ к создаваемому пользователями каталогу ссылок на торрент-файлы, которые содержат только списки хеш-сумм.
Убедительная просьба с жалобами обращаться напрямую к пользователю, разместившему торрент файл.

Вверх