Loading...
Error

Лукас / Lucas (Дэвид Зельцер) [1986 г., комедия, мелодрама, HDRip] AVO

Статистика раздачи
Размер:  1,46 GB   |    Зарегистрирован:  1 год 2 месяца   |    Скачан:  8 раз

Полного источника не было: 2 месяца 6 дней

Сидов:  0  |  0 KB/s  ]   Личеров:  0  |  0 KB/s  ]

* - сиды/пиры с внешних источников

   
 
Автор Сообщение

makkol Пол:Муж

19-Сен-2015 11:22

Лукас / Lucas
«A boy that just won't be beaten»


Год выпуска: 1986
Жанр: комедия, мелодрама
Производство: США [20th Century Fox Film Corporation]
Режиссер: Дэвид Зельцер
В ролях: Кори Хэйм, Керри Грин, Чарли Шин, Кортни Торн-Смит, Вайнона Райдер, Том Ходжис, Чиро Поппити, Гай Бойд, Джереми Пивен, Кевин Уикстед
Сюжет фильма:
Четырнадцатилетний Лукас больше интересуется тайнами науки и поведением насекомых, чем футболом и вечеринками с девушками. Но вот во время летних каникул он влюбляется в симпатичную шестнадцатилетнюю девчонку. Трогательная, чарующая история первой любви.

  • Мировая премьера: 28 марта 1986


Качество видео: HDRip

Продолжительность: 01:39:37
Формат: AVI
Видео: XviD, 720x384 (1.85:1), 23.976 fps, 1901 kbps
Аудио: русский, авторский одноголосый закадровый (Михаил Иванов), AC3 2.0, 48 kHz, 192 kbps

Код:

General
Complete name : Lucas_HDRip_RG_All_Films.avi
Format : AVI
Format/Info : Audio Video Interleave
File size : 1.46 GiB
Duration : 1h 39mn
Overall bit rate : 2 103 Kbps
Writing application : VirtualDubMod 1.5.10.3
Writing library : VirtualDubMod build 2550/release

Video
ID : 0
Format : MPEG-4 Visual
Format profile : Advanced Simple@L5
Format settings, BVOP : Yes
Format settings, QPel : No
Format settings, GMC : No warppoints
Format settings, Matrix : Custom
Codec ID : XVID
Codec ID/Hint : XviD
Duration : 1h 39mn
Bit rate : 1 902 Kbps
Width : 720 pixels
Height : 384 pixels
Display aspect ratio : 1.875
Frame rate : 23.976 fps
Color space : YUV
Chroma subsampling : 4:2:0
Bit depth : 8 bits
Scan type : Progressive
Compression mode : Lossy
Bits/(Pixel*Frame) : 0.287
Stream size : 1.32 GiB (90%)
Writing library : XviD 1.2.1 (UTC 2008-12-04)

Audio
ID : 1
Format : AC-3
Format/Info : Audio Coding 3
Mode extension : CM (complete main)
Codec ID : 2000
Duration : 1h 39mn
Bit rate mode : Constant
Bit rate : 192 Kbps
Channel(s) : 2 channels
Channel positions : Front: L R
Sampling rate : 48.0 KHz
Bit depth : 16 bits
Compression mode : Lossy
Stream size : 137 MiB (9%)
Alignment : Split accross interleaves
Interleave, duration : 42 ms (1.00 video frame)
Interleave, preload duration : 500 ms
Релиз группы:

picpicpicpicpic
Для увеличения картинки щелкните мышкой по превью

Этот торрент недоступен для скачивания без регистрации, однако доступен по публичной magnet-ссылке (источники с публичных трекеров). Перед использованием ссылки прочтите, пожалуйста Пользовательское соглашение, а также как можно дольше оставайтесь на раздаче! Для того, чтобы скачать сам торрент-файл (который видит больше источников), а также для того, чтобы поблагодарить релизера, вам необходимо зарегистрироваться. Если регистрироваться лень - вы можете также попробовать скачать релиз по нашим партнерским ссылкам ниже.

[underverse.su].t58422.torrent
Трекер: Зарегистрирован   [ 19.09.2015 11:22 ]  

Статус: проверено (by makkol at 19.09.2015 22:04)
Поблагодарили: пока никто не поблагодарил...
Тип торрента: публичный - доступные источники с открытых трекеров: 
Размер: 1,46 GB (занимает 0,33 DVDR, для записи нужно 1 болванка DVDR/RW)
 
 
Похожие темы
Форум Тема Автор Торрент Отв. Посл. сооб.
Зарубежное кино [HDDVDRip / BDRip / WEB-DL / HDTV 1080/720р] Лукас / Lucas (Дэвид Зельцер) [1986 г., комедия, мелодрама, BDRip 720p] AVO + Original makkol
0 | 0

0 | 326

1

19.09.2015 11:53


Яндекс.Метрика powered by Sphinx


В Н И М А Н И Е
Сайт не распространяет и не хранит электронные версии произведений, а лишь бесплатно и без коммерческой выгоды (не требуя взамен платы,
SMS и т.д.) предоставляет доступ к создаваемому пользователями каталогу ссылок на торрент-файлы, которые содержат только списки хеш-сумм.
Убедительная просьба с жалобами обращаться напрямую к пользователю, разместившему торрент файл.

Вверх