Loading...
Error

Астрал 3 / Insidious: Chapter 3 (Ли Уоннелл) [2015 г., ужасы, триллер, драма, WEB-DLRip-AVC] Dub

Статистика раздачи
Размер:  1,97 GB   |    Зарегистрирован:  1 год 2 месяца   |    Скачан:  15 раз

Полного источника не было: 2 месяца 18 дней

Сидов:  0  |  0 KB/s  ]   Личеров:  0  |  0 KB/s  ]

* - сиды/пиры с внешних источников

   
 
Автор Сообщение

ultarasbarcelona Пол:Муж

18-Сен-2015 17:29

Астрал 3 / Insidious: Chapter 3


Год выпуска: 2015
Жанр: ужасы, триллер, драма
Страна: США , Канада
Режиссер: Ли Уоннелл
В ролях: Стефани Скотт, Лин Шэй, Дермот Малруни, Энгус Сэмпсон, Ли Уоннелл, Тейт Берни, Майкл Рид МакКей, Стив Култер, Хейли Кийоко, Корбетт Так
Сюжет фильма:
История о том, как одаренный экстрасенс Элис Рейнер неохотно соглашается использовать свои способности для установления связи с мертвыми, чтобы помочь девочке-подростку, которая стала мишенью для опасной сверхъестественной сущности.

  • Мировая премьера: 28 мая 2015
  • Российская премьера: 4 июня 2015


Качество видео: WEB-DLRip-AVC

Продолжительность: 01:37:00
Формат: MKV
Видео: MPEG-4 AVC, 1024x428, 2511 kbps
Аудио: русский, дублированный [iTunes], AC3 5.1, 384 kbps

Код:

Астрал 3Astral_3_2015_AVC_WEB-DLRip_it.mkv
Format : Matroska
Format version : Version 2
File size : 1.97 GiB
Duration : 1h 37mn
Overall bit rate : 2 896 Kbps
Encoded date : UTC 2015-09-17 10:46:23
Writing application : mkvmerge v6.1.0 ('Old Devil') built on Mar 4 2013 09:10:42
Writing library : libebml v1.3.0 + libmatroska v1.4.0

Video
ID : 1
Format : AVC
Format/Info : Advanced Video Codec
Format profile : High@L4.1
Format settings, CABAC : Yes
Format settings, ReFrames : 8 frames
Codec ID : V_MPEG4/ISO/AVC
Duration : 1h 37mn
Bit rate : 2 511 Kbps
Width : 1 024 pixels
Height : 428 pixels
Display aspect ratio : 2.35:1
Original display aspect ratio : 2.35:1
Frame rate mode : Constant
Frame rate : 23.976 fps
Color space : YUV
Chroma subsampling : 4:2:0
Bit depth : 8 bits
Scan type : Progressive
Bits/(Pixel*Frame) : 0.239
Stream size : 1.67 GiB (85%)
Writing library : x264 core 138 r2356 a1d3d17
Encoding settings : cabac=1 / ref=8 / deblock=1:-3:-2 / analyse=0x3:0x113 / me=umh / subme=10 / psy=1 / psy_rd=1.00:0.05 / mixed_ref=1 / me_range=32 / chroma_me=1 / trellis=2 / 8x8dct=1 / cqm=0 / deadzone=21,11 / fast_pskip=0 / chroma_qp_offset=-3 / threads=12 / lookahead_threads=2 / sliced_threads=0 / nr=0 / decimate=0 / interlaced=0 / bluray_compat=0 / constrained_intra=0 / bframes=8 / b_pyramid=2 / b_adapt=2 / b_bias=0 / direct=3 / weightb=1 / open_gop=0 / weightp=2 / keyint=240 / keyint_min=24 / scenecut=40 / intra_refresh=0 / rc_lookahead=40 / rc=2pass / mbtree=1 / bitrate=2511 / ratetol=1.0 / qcomp=0.60 / qpmin=0 / qpmax=69 / qpstep=4 / cplxblur=20.0 / qblur=0.5 / ip_ratio=1.40 / aq=1:1.00
Default : Yes
Forced : No

Audio
ID : 2
Format : AC-3
Format/Info : Audio Coding 3
Mode extension : CM (complete main)
Format settings, Endianness : Big
Codec ID : A_AC3
Duration : 1h 37mn
Bit rate mode : Constant
Bit rate : 384 Kbps
Channel(s) : 6 channels
Channel positions : Front: L C R, Side: L R, LFE
Sampling rate : 48.0 KHz
Bit depth : 16 bits
Compression mode : Lossy
Stream size : 267 MiB (13%)
Default : Yes
Forced : No
Релиз группы:

picpicpic
Для увеличения картинки щелкните мышкой по превью

Этот торрент недоступен для скачивания без регистрации, однако доступен по публичной magnet-ссылке (источники с публичных трекеров). Перед использованием ссылки прочтите, пожалуйста Пользовательское соглашение, а также как можно дольше оставайтесь на раздаче! Для того, чтобы скачать сам торрент-файл (который видит больше источников), а также для того, чтобы поблагодарить релизера, вам необходимо зарегистрироваться. Если регистрироваться лень - вы можете также попробовать скачать релиз по нашим партнерским ссылкам ниже.

[underverse.su].t58377.torrent
Трекер: Зарегистрирован   [ 18.09.2015 17:29 ]  

Статус: T временная (by makkol at 18.09.2015 17:44)
Поблагодарили: пока никто не поблагодарил...
Тип торрента: публичный - доступные источники с открытых трекеров: 
Размер: 1,97 GB (занимает 0,45 DVDR, для записи нужно 1 болванка DVDR/RW)
 
 
Похожие темы
Форум Тема Автор Торрент Отв. Посл. сооб.
T Зарубежное кино [DVDRip, Low-Res HDRip, и т.д.] Астрал 3 / Insidious: Chapter 3 (Ли Уоннелл) [2015 г., Ужасы, WEBRip] Dub (RUS, Чистый звук) Ведьмочка
466 | 4

0 | 688

38

03.07.2015 13:46

T Зарубежное кино [DVDRip, Low-Res HDRip, и т.д.] Астрал 3 / Insidious: Chapter 3 (Ли Уоннелл) [2015 г., ужасы, WEB-DLRip] Dub makkol
383 | 3

0 | 375

13

16.09.2015 22:13

T Зарубежное кино [HDDVDRip / BDRip / WEB-DL / HDTV 1080/720р] Астрал 3 / Insidious: Chapter 3 (Ли Уоннелл) [2015 г., Ужасы, WEBRip 720p] Dub (RUS, Чистый звук) Ведьмочка
41 | 1

0 | 495

7

03.07.2015 13:26

T Зарубежное кино [HDDVDRip / BDRip / WEB-DL / HDTV 1080/720р] Астрал 3 / Insidious: Chapter 3 (Ли Уоннелл) [2015 г., Ужасы, WEBRip 1080p] Dub (RUS, Чистый звук) + Original (ENG) Ведьмочка
119 | 1

0 | 698

34

03.07.2015 13:34

T Зарубежное кино [HDDVDRip / BDRip / WEB-DL / HDTV 1080/720р] Астрал 3 / Insidious: Chapter 3 (Ли Уоннелл) [2015 г., ужасы, WEB-DL 720p] Dub makkol
39 | 1

0 | 326

10

16.09.2015 22:22

T Зарубежное кино [HDDVDRip / BDRip / WEB-DL / HDTV 1080/720р] Астрал 3 / Insidious: Chapter 3 (Ли Уоннелл) [2015 г., ужасы, WEB-DL 1080p] Dub makkol
16 | 0

0 | 400

23

16.09.2015 22:30

T Новинки кино [CAMRip, TS, DVDScr, WP, TC] Астрал 3 / Insidious: Chapter 3 (Ли Уоннелл) [2015 г., ужасы, CAMRip] Dub Паукан
10 | 0

0 | 750

16

08.06.2015 09:26

T Новинки кино [CAMRip, TS, DVDScr, WP, TC] Астрал 3 / Insidious: Chapter 3 (Ли Уоннелл) [2015 г., Ужасы, WEBRip] Dub (RUS, Звук с TS) Ведьмочка
24 | 0

2 | 819

43

03.07.2015 13:06


Яндекс.Метрика powered by Sphinx


В Н И М А Н И Е
Сайт не распространяет и не хранит электронные версии произведений, а лишь бесплатно и без коммерческой выгоды (не требуя взамен платы,
SMS и т.д.) предоставляет доступ к создаваемому пользователями каталогу ссылок на торрент-файлы, которые содержат только списки хеш-сумм.
Убедительная просьба с жалобами обращаться напрямую к пользователю, разместившему торрент файл.

Вверх