Loading...
Error

Правдивая история / True Story (Руперт Гулд) [2015 г., триллер, драма, детектив, HDRip] MVO

Статистика раздачи
Размер:  1,37 GB   |    Зарегистрирован:  1 год 2 месяца   |    Скачан:  34 раза

Полного источника не было: 2 месяца 5 дней

Сидов:  0  |  0 KB/s  ]   Личеров:  0  |  0 KB/s  ]

* - сиды/пиры с внешних источников

   
 
Автор Сообщение

makkol Пол:Муж

18-Сен-2015 14:24

Правдивая история / True Story


Год выпуска: 2015
Жанр: триллер, драма, детектив
Производство: США [New Regency Pictures, Plan B Entertainment, Regency Enterprises]
Режиссер: Руперт Гулд
В ролях: Джона Хилл, Джеймс Франко, Фелисити Джонс, Мария Диззия, Итэн Сапли, Конор Кикот, Шарлотта Дрисколл, Стелла Рэй Пэйн, Роберт Джон Бёрк, Байрон Дженнингс
Сюжет фильма:
История взаимоотношений журналиста Майкла Финкеля и убийцы, разыскиваемого ФБР, по имени Кристиан Лонго, который много лет скрывался за пределами США под именем Финкеля.

  • Мировая премьера: 23 января 2015


Качество видео: HDRip

Продолжительность: 01:39:26
Формат: AVI
Видео: XviD, 720x384 (1.85:1), 23.976 fps, 1511 kbps
Аудио: русский, любительский многоголосый закадровый, AC3 5.1, 48 kHz, 448 kbps

Код:

Общее
Полное имя                               : Pravd1vaya.Ist0r1ya.2015.P.HDRip.Pardox&Omskbird.avi
Формат                                   : AVI
Формат/Информация                        : Audio Video Interleave
Размер файла                             : 1,37 Гбайт
Продолжительность                        : 1 ч. 39 м.
Общий поток                              : 1968 Кбит/сек
Программа кодирования                    : VirtualDubMod 1.5.10.2 (build 2540/release)
Библиотека кодирования                   : VirtualDubMod build 2540/release

Видео
Идентификатор                            : 0
Формат                                   : MPEG-4 Visual
Профиль формата                          : Advanced Simple@L5
Параметр BVOP формата                    : 2
Параметр QPel формата                    : Нет
Параметр GMC формата                     : Без точки перехода
Параметр матрицы формата                 : Default (MPEG)
Идентификатор кодека                     : XVID
Идентификатор кодека/Подсказка           : XviD
Продолжительность                        : 1 ч. 39 м.
Битрейт                                  : 1511 Кбит/сек
Ширина                                   : 720 пикселей
Высота                                   : 384 пикселя
Соотношение сторон                       : 1,85:1
Частота кадров                           : 23,976 кадра/сек
Цветовое пространство                    : YUV
Субдискретизация насыщенности            : 4:2:0
Битовая глубина                          : 8 бит
Тип развёртки                            : Прогрессивная
Метод сжатия                             : С потерями
Бит/(Пиксели*Кадры)                      : 0.228
Размер потока                            : 1,05 Гбайт (77%)
Библиотека кодирования                   : XviD 1.2.1 (UTC 2008-12-04)

Аудио
Идентификатор                            : 1
Формат                                   : AC-3
Формат/Информация                        : Audio Coding 3
Расширение режима                        : CM (complete main)
Параметр Endianness формата              : Big
Идентификатор кодека                     : 2000
Продолжительность                        : 1 ч. 39 м.
Вид битрейта                             : Постоянный
Битрейт                                  : 448 Кбит/сек
Каналы                                   : 6 каналов
Расположение каналов                     : Front: L C R, Side: L R, LFE
Частота                                  : 48,0 КГц
Метод сжатия                             : С потерями
Размер потока                            : 319 Мбайт (23%)
Выравнивание                             : Разделение по промежуткам
Продолжительность промежутка             : 42  мс. (1,00 видеокадр)
Время предзагрузки промежутка            : 500  мс.
Фильм озвучен студией Paradox & Omskbird records
Текст читали: Петр Гланц-Иващенко, Максим Максимов, Павел Ярощик и Анастасия Флигина
Перевод: Дмитрий Микушин
picpicpicpicpic
Для увеличения картинки щелкните мышкой по превью

Этот торрент недоступен для скачивания без регистрации, однако доступен по публичной magnet-ссылке (источники с публичных трекеров). Перед использованием ссылки прочтите, пожалуйста Пользовательское соглашение, а также как можно дольше оставайтесь на раздаче! Для того, чтобы скачать сам торрент-файл (который видит больше источников), а также для того, чтобы поблагодарить релизера, вам необходимо зарегистрироваться. Если регистрироваться лень - вы можете также попробовать скачать релиз по нашим партнерским ссылкам ниже.

[underverse.su].t58351.torrent
Трекер: Зарегистрирован   [ 18.09.2015 14:24 ]  

Статус: проверено (by makkol at 19.09.2015 10:52)
Поблагодарили: пока никто не поблагодарил...
Тип торрента: публичный - доступные источники с открытых трекеров: 
Размер: 1,37 GB (занимает 0,31 DVDR, для записи нужно 1 болванка DVDR/RW)
 
 
Похожие темы
Форум Тема Автор Торрент Отв. Посл. сооб.
Зарубежные мультфильмы Правдивая история Кота в Сапогах / The True Story of Puss'N Boots (Жером Дешам, Паскаль Эрольд, Маша Макеева) [2009 г., комедия, приключения, анимация, BDRip] GUree
0 | 0

8 | 2583

18

30.10.2011 15:24

Зарубежное кино [HDDVDRip / BDRip / WEB-DL / HDTV 1080/720р] Правдивая история / True Story (Руперт Гулд) [2015 г., триллер, драма, детектив, BDRip 1080p] MVO + Original makkol
0 | 0

0 | 583

17

18.09.2015 14:38


Яндекс.Метрика powered by Sphinx


В Н И М А Н И Е
Сайт не распространяет и не хранит электронные версии произведений, а лишь бесплатно и без коммерческой выгоды (не требуя взамен платы,
SMS и т.д.) предоставляет доступ к создаваемому пользователями каталогу ссылок на торрент-файлы, которые содержат только списки хеш-сумм.
Убедительная просьба с жалобами обращаться напрямую к пользователю, разместившему торрент файл.

Вверх