Loading...
Error

Племя радуги / The Rainbow Tribe (Кристофер Р. Уотсон) [2008 г., комедия, семейный, DVDRip] MVO

Статистика раздачи
Размер:  1,37 GB   |    Зарегистрирован:  1 год 2 месяца   |    Скачан:  14 раз

Полного источника не было: 3 месяца 11 дней

Сидов:  0  |  0 KB/s  ]   Личеров:  0  |  0 KB/s  ]

* - сиды/пиры с внешних источников

   
 
Автор Сообщение

makkol Пол:Муж

18-Сен-2015 13:21

Племя радуги / The Rainbow Tribe
«For anyone who has ever been in danger... of growing up»


Год выпуска: 2008
Жанр: комедия, семейный
Производство: США , Чехия [International Production Company, Cinethetic]
Режиссер: Кристофер Р. Уотсон
В ролях: Дэвид Джеймс Эллиотт, Грэйсон Расселл, Эд Куинн, Джули Энн Эмери, Ребекка Мэдер, Ной Манк, Макс Бургхолдер, Гэбриел Манн, Рени Тейлор, Эйдан Гулд, Стивен Тоболовски, Харрисон Херрон, Деннис Волочков, Тэйлор Богган, Роки Паркер, Марк Бакунас, Zach Boggan, Бриана Бурк, Лизз Картер, Кэтлин Элизабет
Сюжет фильма:
После очередного приступа, больной раком мужчина решает отправиться вожатым в летний лагерь своего детства, надеясь, что это поможет ему найти силы для продолжения борьбы за жизнь. Закадычный друг - начальник лагеря - «подсовывает» ему самых проблемных детей, от которых отказались другие воспитатели...

  • Мировая премьера: 20 сентября 2008


Качество видео: DVDRip

Продолжительность: 01:28:54
Формат: AVI
Видео: XviD, 704x384@704x405, 2059 kbps
Аудио: русский, профессиональный многоголосый закадровый, MP3 2.0, 128 kbps

Код:

Общее
Полное имя                               : Племя_Радуги.avi
Формат                                   : AVI
Формат/Информация                        : Audio Video Interleave
Профиль формата                          : OpenDML
Размер файла                             : 1,37 Гбайт
Продолжительность                        : 1 ч. 28 м.
Общий поток                              : 2202 Кбит/сек
Программа кодирования                    : XviD4PSP 6.0 / 54.14.100

Видео
Идентификатор                            : 0
Формат                                   : MPEG-4 Visual
Профиль формата                          : Advanced Simple@L5
Параметр BVOP формата                    : 1
Параметр QPel формата                    : Нет
Параметр GMC формата                     : Без точки перехода
Параметр матрицы формата                 : Default (H.263)
Идентификатор кодека                     : XVID
Идентификатор кодека/Подсказка           : XviD
Продолжительность                        : 1 ч. 28 м.
Битрейт                                  : 2059 Кбит/сек
Ширина                                   : 704 пикселя
Высота                                   : 384 пикселя
Соотношение сторон                       : 1,738
Частота кадров                           : 23,976 кадра/сек
Цветовое пространство                    : YUV
Субдискретизация насыщенности            : 4:2:0
Битовая глубина                          : 8 бит
Тип развёртки                            : Прогрессивная
Метод сжатия                             : С потерями
Бит/(Пиксели*Кадры)                      : 0.318
Размер потока                            : 1,28 Гбайт (94%)
Библиотека кодирования                   : XviD 64

Аудио
Идентификатор                            : 1
Формат                                   : MPEG Audio
Версия формата                           : Version 1
Профиль формата                          : Layer 3
Режим                                    : Joint stereo
Расширение режима                        : MS Stereo
Идентификатор кодека                     : 55
Идентификатор кодека/Подсказка           : MP3
Продолжительность                        : 1 ч. 28 м.
Вид битрейта                             : Постоянный
Битрейт                                  : 128 Кбит/сек
Каналы                                   : 2 канала
Частота                                  : 48,0 КГц
Метод сжатия                             : С потерями
Размер потока                            : 81,4 Мбайт (6%)
Выравнивание                             : Соединение по промежуткам
Продолжительность промежутка             : 24  мс. (0,58 видеокадр)
Библиотека кодирования                   : LAME3.99.4
picpicpicpicpic
Для увеличения картинки щелкните мышкой по превью

Этот торрент недоступен для скачивания без регистрации, однако доступен по публичной magnet-ссылке (источники с публичных трекеров). Перед использованием ссылки прочтите, пожалуйста Пользовательское соглашение, а также как можно дольше оставайтесь на раздаче! Для того, чтобы скачать сам торрент-файл (который видит больше источников), а также для того, чтобы поблагодарить релизера, вам необходимо зарегистрироваться. Если регистрироваться лень - вы можете также попробовать скачать релиз по нашим партнерским ссылкам ниже.

[underverse.su].t58339.torrent
Трекер: Зарегистрирован   [ 18.09.2015 13:21 ]  

Статус: проверено (by makkol at 19.09.2015 10:50)
Поблагодарили: 1 человек
Тип торрента: публичный - доступные источники с открытых трекеров: 
Размер: 1,37 GB (занимает 0,31 DVDR, для записи нужно 1 болванка DVDR/RW)
 
 

Яндекс.Метрика powered by Sphinx


В Н И М А Н И Е
Сайт не распространяет и не хранит электронные версии произведений, а лишь бесплатно и без коммерческой выгоды (не требуя взамен платы,
SMS и т.д.) предоставляет доступ к создаваемому пользователями каталогу ссылок на торрент-файлы, которые содержат только списки хеш-сумм.
Убедительная просьба с жалобами обращаться напрямую к пользователю, разместившему торрент файл.

Вверх