Loading...
Error

Шеф. Новая жизнь (3 сезон: 1-32 серии из 32) (Олег Ларин) [2015 г., криминал, SatRip]

Статистика раздачи
Размер:  19,34 GB   |    Зарегистрирован:  1 год 2 месяца   |    Скачан:  17 раз

Полного источника не было: 16 часов

Сидов:  0  |  0 KB/s  ]   Личеров:  0  |  0 KB/s  ]

* - сиды/пиры с внешних источников

   
 
Автор Сообщение

nemos Пол:Муж

17-Сен-2015 22:43

Шеф. Новая жизнь


Год выпуска: 2015
Жанр: криминал
Страна: Россия
Режиссер: Олег Ларин
В ролях: Андрей Чубченко, Анна Табанина, Кирилл Полухин, Александр Рыбаков, Сергей Бледных, Кирилл Рубцов, Дмитрий Сутырин, Юрий Сысоев, Андрей Чуманов, Геннадий Смирнов, Олег Метелев, Антон Пулит, Яна Бушина, Юрий Сташин, Павел Грязнов, Степан Пивкин, Александр Кладько, Сергей Андрейчук, Андрей Иванов, Виталий Пичик, Александр Шпилько, Николай Поздеев, Андрей Дежонов и др.
Сюжет фильма:
Полковник полиции Виктор Расторгуев, дав показания на членов преступной группы, возглавлял которую его близкий друг, генерал МВД Константин Лыков, согласился на инсценировку своей гибели. Теперь он, его любимая женщина Даша Истомина и дочь Полина находятся под присмотром сотрудников Управления МВД по обеспечению безопасности лиц, подлежащих государственной защите. Переезжая из города в город, наши герои оказались в небольшом сибирском городке Томилинске. Расторгуев получил новую биографию, сменил фамилию и устроился работать в такси, он старается забыть о прошлой жизни и хочет посвятить себя дочери и любимой женщине. Но несправедливость и преступления есть везде...
Качество видео: SatRip

Продолжительность: 00:45:09 серия
Формат: AVI
Видео: XviD, 720х448, 2 194 kbps
Аудио: русский, MP3 2.0, 128 kbps

Код:

General
Complete name : D:\Шеф Новая жизнь 2015 SatRip\01.serija.avi
Format : AVI
Format/Info : Audio Video Interleave
File size : 754 MiB
Duration : 45mn 9s
Overall bit rate : 2 334 Kbps
Writing application : transcode-1.1.5

Video
ID : 0
Format : MPEG-4 Visual
Format profile : Advanced Simple@L5
Format settings, BVOP : 1
Format settings, QPel : No
Format settings, GMC : No warppoints
Format settings, Matrix : Default (MPEG)
Codec ID : XVID
Codec ID/Hint : XviD
Duration : 45mn 9s
Bit rate : 2 194 Kbps
Width : 720 pixels
Height : 448 pixels
Display aspect ratio : 16:10
Frame rate : 30.000 fps
Color space : YUV
Chroma subsampling : 4:2:0
Bit depth : 8 bits
Scan type : Progressive
Compression mode : Lossy
Bits/(Pixel*Frame) : 0.227
Stream size : 709 MiB (94%)
Writing library : XviD 65

Audio
ID : 1
Format : MPEG Audio
Format version : Version 1
Format profile : Layer 3
Mode : Joint stereo
Codec ID : 55
Codec ID/Hint : MP3
Duration : 45mn 9s
Bit rate mode : Constant
Bit rate : 128 Kbps
Channel(s) : 2 channels
Sampling rate : 44.1 KHz
Compression mode : Lossy
Delay relative to video : 17ms
Stream size : 41.3 MiB (5%)
Alignment : Split accross interleaves
Interleave, duration : 33 ms (1.00 video frame)
Interleave, preload duratio : 500 ms
Writing library : LAME3.99.5ЄЄЄЄЄЄЄЄЄЄ
picpicpic
Для увеличения картинки щелкните мышкой по превью

Этот торрент недоступен для скачивания без регистрации, однако доступен по публичной magnet-ссылке (источники с публичных трекеров). Перед использованием ссылки прочтите, пожалуйста Пользовательское соглашение, а также как можно дольше оставайтесь на раздаче! Для того, чтобы скачать сам торрент-файл (который видит больше источников), а также для того, чтобы поблагодарить релизера, вам необходимо зарегистрироваться. Если регистрироваться лень - вы можете также попробовать скачать релиз по нашим партнерским ссылкам ниже.

[underverse.su].t58624.torrent
Трекер: Зарегистрирован   [ 26.09.2015 02:58 ]  

Статус: проверено (by nemos at 26.09.2015 02:59)
Поблагодарили: 1 человек
Тип торрента: публичный - доступные источники с открытых трекеров: 
Размер: 19,34 GB (занимает 4,42 DVDR, для записи нужно 5 болванок DVDR/RW)
 
 


Последний раз редактировалось: nemos (26.09.2015 11:34), всего редактировалось 8 раз(а)

nemos Пол:Муж

17-Сен-2015 22:47

Вот ссылка на первый сезон: http://underverse.su/viewtopic.php?p=204902#204902 Вот на второй сезон ссылка: http://underverse.su/viewtopic.php?p=204901#204901 Все раздачи мультитрекерные.

nemos Пол:Муж

18-Сен-2015 16:10

Торр файл обновлён до 32-й серии!

Яндекс.Метрика powered by Sphinx


В Н И М А Н И Е
Сайт не распространяет и не хранит электронные версии произведений, а лишь бесплатно и без коммерческой выгоды (не требуя взамен платы,
SMS и т.д.) предоставляет доступ к создаваемому пользователями каталогу ссылок на торрент-файлы, которые содержат только списки хеш-сумм.
Убедительная просьба с жалобами обращаться напрямую к пользователю, разместившему торрент файл.

Вверх