Loading...
Error

Ангелы с черными поясами / Black Belt Angels (Чи-Хан Ким) [1994 г., боевик, семейный, LDRip] AVO

Статистика раздачи
Размер:  701 MB   |    Зарегистрирован:  1 год 2 месяца   |    Скачан:  7 раз

Полного источника не было: 1 год 1 месяц

Сидов:  0  |  0 KB/s  ]   Личеров:  0  |  0 KB/s  ]

* - сиды/пиры с внешних источников

   
 
Автор Сообщение

makkol Пол:Муж

17-Сен-2015 22:42

Ангелы с черными поясами / Black Belt Angels


Год выпуска: 1994
Жанр: боевик, семейный
Производство: США [Showcase Entertaiment Inc., Silver Bell Film Inc.]
Режиссер: Чи-Хан Ким
В ролях: Шона Ларсон, Ребека Бартлетт, Николь Буркс, Фрэнк ДеАнджело, Бобби Ким, Нева Робертс, Шэннон Маркетик, Джек Сэвидж, Сэм Куоха, Майкл Балдос, Ди Ларсон
Сюжет фильма:
Для Мэтта Робинса и его двух дочерей семейная школа Боевых Искусств стала смыслом жизни. Чтобы сохранить ее, они были готовы на все. И даже когда главарь мафиозной группировки Люцеро, заручившись поддержкой древнего клана ниндзя, решил закрыть школу изахватить принадлежащую ей собственность, отважная семья не пала духом. Мощный отпор юных воинственных красавиц, защищающих свой дом, стал настоящим сюрпризом для головорезов ниндзя.

Качество видео: LDRip

Продолжительность: 01:18:18
Формат: AVI
Видео: XviD, 512x384, 25.000 fps, 1115 kbps
Аудио: русский, авторский одноголосый закадровый (Юрий Сербин), MP3 2.0, 48 kHz, 128 kbps

Код:

Общее
Полное имя                               : Angely s chernymi poyasami.avi
Формат                                   : AVI
Формат/Информация                        : Audio Video Interleave
Размер файла                             : 701 Мбайт
Продолжительность                        : 1 ч. 18 м.
Общий поток                              : 1252 Кбит/сек
Программа кодирования                    : VirtualDubModRus 1.5.10.2 (build 2540/release)
Библиотека кодирования                   : VirtualDubMod build 2540/release

Видео
Идентификатор                            : 0
Формат                                   : MPEG-4 Visual
Профиль формата                          : Advanced Simple@L5
Параметр BVOP формата                    : 1
Параметр QPel формата                    : Нет
Параметр GMC формата                     : Без точки перехода
Параметр матрицы формата                 : Выборочная
Идентификатор кодека                     : XVID
Идентификатор кодека/Подсказка           : XviD
Продолжительность                        : 1 ч. 18 м.
Битрейт                                  : 1115 Кбит/сек
Ширина                                   : 512 пикселей
Высота                                   : 384 пикселя
Соотношение сторон                       : 4:3
Частота кадров                           : 25,000 кадров/сек
Цветовое пространство                    : YUV
Субдискретизация насыщенности            : 4:2:0
Битовая глубина                          : 8 бит
Тип развёртки                            : Прогрессивная
Метод сжатия                             : С потерями
Бит/(Пиксели*Кадры)                      : 0.227
Размер потока                            : 624 Мбайт (89%)
Библиотека кодирования                   : XviD 1.2.0.dev47 (UTC 2006-11-01)

Аудио
Идентификатор                            : 1
Формат                                   : MPEG Audio
Версия формата                           : Version 1
Профиль формата                          : Layer 3
Режим                                    : Joint stereo
Расширение режима                        : MS Stereo
Идентификатор кодека                     : 55
Идентификатор кодека/Подсказка           : MP3
Продолжительность                        : 1 ч. 18 м.
Вид битрейта                             : Постоянный
Битрейт                                  : 128 Кбит/сек
Каналы                                   : 2 канала
Частота                                  : 48,0 КГц
Метод сжатия                             : С потерями
Размер потока                            : 71,7 Мбайт (10%)
Выравнивание                             : Разделение по промежуткам
Продолжительность промежутка             : 40  мс. (1,00 видеокадр)
Время предзагрузки промежутка            : 500  мс.
Библиотека кодирования                   : LAME3.98.2
Язык                                     : Espanol
Релиз: Охрим

picpicpicpicpic
Для увеличения картинки щелкните мышкой по превью

Этот торрент недоступен для скачивания без регистрации, однако доступен по публичной magnet-ссылке (источники с публичных трекеров). Перед использованием ссылки прочтите, пожалуйста Пользовательское соглашение, а также как можно дольше оставайтесь на раздаче! Для того, чтобы скачать сам торрент-файл (который видит больше источников), а также для того, чтобы поблагодарить релизера, вам необходимо зарегистрироваться. Если регистрироваться лень - вы можете также попробовать скачать релиз по нашим партнерским ссылкам ниже.

[underverse.su].t58322.torrent
Трекер: Зарегистрирован   [ 17.09.2015 22:42 ]  

Статус: проверено (by матроскин at 18.09.2015 03:32)
Поблагодарили: пока никто не поблагодарил...
Тип торрента: публичный - доступные источники с открытых трекеров: 
Размер: 701 MB (занимает 0,16 DVDR, для записи нужно 1 болванка DVDR/RW)
 
 

Яндекс.Метрика powered by Sphinx


В Н И М А Н И Е
Сайт не распространяет и не хранит электронные версии произведений, а лишь бесплатно и без коммерческой выгоды (не требуя взамен платы,
SMS и т.д.) предоставляет доступ к создаваемому пользователями каталогу ссылок на торрент-файлы, которые содержат только списки хеш-сумм.
Убедительная просьба с жалобами обращаться напрямую к пользователю, разместившему торрент файл.

Вверх