Loading...
Error

Воскрешение / Resurrection / Сезон 2 (1-13 серия из 13) (Дэниэл Эттиэс, Крис Мисиано, Кевин Даулинг) [2014 г., фэнтези, драма, WEB-DLRip] MVO + Original

Статистика раздачи
Размер:  6,98 GB   |    Зарегистрирован:  1 год 2 месяца   |    Скачан:  3 раза

Полного источника не было: 11 месяцев

Сидов:  0  |  0 KB/s  ]   Личеров:  0  |  0 KB/s  ]

* - сиды/пиры с внешних источников

   
 
Автор Сообщение

older Пол:Муж

17-Сен-2015 13:10

Воскрешение / Resurrection / Сезон 2


Год выпуска: 2014
Жанр: фэнтези, драма
Страна: США
Режиссер: Дэниэл Эттиэс, Крис Мисиано, Кевин Даулинг
В ролях: Самира Армстронг, Мэтт Крэвен, Омар Эппс, Фрэнсис Фишер, Лэндон, Хименес, Сэм Хэзелдайн, Марк Хилдрет, Кертвуд Смит, Трэвис Янг, Кевин Сайзмор
Сюжет фильма:
Люди, живущие в маленьком городке сталкиваются с очень необычным явлением: их родные и близкие вновь возвращаются после своей смерти. Среди таких возвратившихся оказывается и маленький восьмилетний мальчик, который утонул еще три десятка лет назад. Его обнаружили в Китае, после чего иммиграционная служба вернула его домой. Каково же было удивление местного шерифа, жена которого утонула. Именно ее и пытался спасти этот самый мальчик. В чем же кроется отгадка этой мистической истории?

Качество видео: WEB-DLRip

Продолжительность: ~ 00:43:00
Формат: AVI
Видео: XviD, 720х400, 1506 kbps
Аудио #1: русский, многоголосый закадровый [профессиональный], MP3 2.0, 128 kbps
Аудио #2: английский, оригинал, MP3 2.0, 128 kbps

Код:

Общее
Полное имя                               :\Воскрешение (S02) NS\Ressurection.s02e03.WEBDLRip.*другой трекер*.avi
Формат                                   : AVI
Формат/Информация                        : Audio Video Interleave
Размер файла                             : 550 Мбайт
Продолжительность                        : 43 м.
Общий поток                              : 1776 Кбит/сек
Программа кодирования                    : VirtualDubMod 1.5.10.2 (build 2540/release)
Библиотека кодирования                   : VirtualDubMod build 2540/release

Видео
Идентификатор                            : 0
Формат                                   : MPEG-4 Visual
Профиль формата                          : Advanced Simple@L5
Параметр BVOP формата                    : 2
Параметр QPel формата                    : Нет
Параметр GMC формата                     : Без точки перехода
Параметр матрицы формата                 : Default (MPEG)
Идентификатор кодека                     : XVID
Идентификатор кодека/Подсказка           : XviD
Продолжительность                        : 43 м.
Битрейт                                  : 1506 Кбит/сек
Ширина                                   : 720 пикселей
Высота                                   : 400 пикселей
Соотношение сторон                       : 16:9
Частота кадров                           : 23,976 кадра/сек
Цветовое пространство                    : YUV
Субдискретизация насыщенности            : 4:2:0
Битовая глубина                          : 8 бит
Тип развёртки                            : Прогрессивная
Метод сжатия                             : С потерями
Бит/(Пиксели*Кадры)                      : 0.218
Размер потока                            : 466 Мбайт (85%)
Библиотека кодирования                   : XviD 64

Аудио #1
Идентификатор                            : 1
Формат                                   : MPEG Audio
Версия формата                           : Version 1
Профиль формата                          : Layer 3
Режим                                    : Joint stereo
Расширение режима                        : MS Stereo
Идентификатор кодека                     : 55
Идентификатор кодека/Подсказка           : MP3
Продолжительность                        : 43 м.
Вид битрейта                             : Постоянный
Битрейт                                  : 128 Кбит/сек
Каналы                                   : 2 канала
Частота                                  : 48,0 КГц
Метод сжатия                             : С потерями
Размер потока                            : 39,7 Мбайт (7%)
Выравнивание                             : Соединение по промежуткам
Продолжительность промежутка             : 42  мс. (1,00 видеокадр)
Время предзагрузки промежутка            : 504  мс.

Аудио #2
Идентификатор                            : 2
Формат                                   : MPEG Audio
Версия формата                           : Version 1
Профиль формата                          : Layer 3
Режим                                    : Joint stereo
Идентификатор кодека                     : 55
Идентификатор кодека/Подсказка           : MP3
Продолжительность                        : 43 м.
Вид битрейта                             : Постоянный
Битрейт                                  : 128 Кбит/сек
Каналы                                   : 2 канала
Частота                                  : 48,0 КГц
Метод сжатия                             : С потерями
Размер потока                            : 39,7 Мбайт (7%)
Выравнивание                             : Соединение по промежуткам
Продолжительность промежутка             : 42  мс. (1,00 видеокадр)
Время предзагрузки промежутка            : 504  мс.
Библиотека кодирования                   : LAME3.99r
Настройки программы                      : -m j -V 4 -q 2 -lowpass 17 -b 128

Релиз группы:

picpicpicpicpic
Для увеличения картинки щелкните мышкой по превью

Этот торрент недоступен для скачивания без регистрации, однако доступен по публичной magnet-ссылке (источники с публичных трекеров). Перед использованием ссылки прочтите, пожалуйста Пользовательское соглашение, а также как можно дольше оставайтесь на раздаче! Для того, чтобы скачать сам торрент-файл (который видит больше источников), а также для того, чтобы поблагодарить релизера, вам необходимо зарегистрироваться. Если регистрироваться лень - вы можете также попробовать скачать релиз по нашим партнерским ссылкам ниже.

[underverse.su].t58312.torrent
Трекер: Зарегистрирован   [ 17.09.2015 13:10 ]  

Статус: проверено (by makkol at 17.09.2015 13:44)
Поблагодарили: пока никто не поблагодарил...
Тип торрента: публичный - доступные источники с открытых трекеров: 
Размер: 6,98 GB (занимает 1,6 DVDR, для записи нужно 2 болванки DVDR/RW)
 
 
Похожие темы
Форум Тема Автор Торрент Отв. Посл. сооб.
Зарубежное кино [DVDRip, Low-Res HDRip, и т.д.] Воскрешение / Resurrection (Рассел Малкэй) [1999 г., ужасы, триллер, драма, криминал, детектив, DVDRip-AVC] DVO + AVO (Ю. Живов)+ Original (Eng) DarkAngel
10 | 0

0 | 608

18

12.10.2012 18:57

Зарубежное кино [DVDRip, Low-Res HDRip, и т.д.] Воскрешение / A Resurrection (Мэтт Орландо) [2013 г., триллер, HDRip] DVO TERRAN
2 | 0

0 | 734

28

28.04.2013 18:24

Зарубежное кино [DVDRip, Low-Res HDRip, и т.д.] Воскрешение / A Resurrection (Мэтт Орландо) [2013 г., триллер, HDRip] bredd82
1 | 0

0 | 860

11

05.05.2013 06:15

Зарубежное кино [DVDRip, Low-Res HDRip, и т.д.] Воскрешение / А Resurrection (Мэтт Орландо) [2013 г., триллер, HDRip] Dub [чистый звук] Паукан
0 | 0

0 | 937

39

22.08.2013 20:58

T Зарубежное кино [DVDRip, Low-Res HDRip, и т.д.] Воскрешение / A Resurrection (Мэтт Орландо) [2013 г., триллер, HDRip] Dub 90ytr90
3 | 0

0 | 2050

10

21.11.2013 18:37

Зарубежные сериалы Воскрешение / Resurrection / Сезон 1 (1-8 серия из 8) (Дэниэл Эттиэс, Крис Мисиано, Кевин Даулинг) [2014 г., фэнтези, драма, WEB-DLRip] MVO + Original older
4 | 0

0 | 450

4

17.09.2015 12:52

T Зарубежное кино [HDDVDRip / BDRip / WEB-DL / HDTV 1080/720р] Воскрешение / А Resurrection (Мэтт Орландо) [2013 г., триллер, BDRip 720p] DuB | Чистый звук Чертёнок
0 | 0

0 | 978

39

23.08.2013 09:58


Яндекс.Метрика powered by Sphinx


В Н И М А Н И Е
Сайт не распространяет и не хранит электронные версии произведений, а лишь бесплатно и без коммерческой выгоды (не требуя взамен платы,
SMS и т.д.) предоставляет доступ к создаваемому пользователями каталогу ссылок на торрент-файлы, которые содержат только списки хеш-сумм.
Убедительная просьба с жалобами обращаться напрямую к пользователю, разместившему торрент файл.

Вверх