Loading...
Error

Зов крови / Потерянная / Фэйри / Lost Girl / Сезон 5 (1-16 серии из 16) (Стив ДиМарко, Паоло Барзмен, Рон Мерфи) [2014 г., фэнтези, драма, WEB-DLRip] DVO + Original

Статистика раздачи
Размер:  8,61 GB   |    Зарегистрирован:  1 год 1 месяц   |    Скачан:  2 раза

Полного источника не было: 17 дней

Сидов:  0  |  0 KB/s  ]   Личеров:  0  |  0 KB/s  ]

* - сиды/пиры с внешних источников

   
 
Автор Сообщение

older Пол:Муж

17-Сен-2015 04:54

Зов крови / Потерянная / Фэйри / Lost Girl / Сезон 5


Год выпуска: 2014
Жанр: фэнтези, драма
Страна: Канада
Режиссер: Стив ДиМарко, Паоло Барзмен, Рон Мерфи
В ролях: Стив ДиМарко, Паоло Барзмен, Рон Мерфи
Сюжет фильма:
Бо - суккуб. Выросшая в человеческой семье она не знала о своей истинной природе, считая себя фриком, а неумение контролировать сверхъестественный голод сделало ее одинокой беглянкой, оставляющей после себя череду трупов. Все меняется, когда Бо попадает в поле зрения кланов Фэйри, объяснивших ей кто она. Не желая выбирать между кланами Света и Тьмы, Бо решает занять сторону людей. Ей помогают юная русская воровка Кензи, детектив-оборотень Дайсон и доктор Лорен, занимающаяся изучением Фэйри.

Качество видео: WEB-DLRip

Продолжительность: ~ 00:44:00
Формат: AVI
Видео: XviD, 720х400, 1463 kbps
Аудио #1: русский, двухголосый закадровый [профессиональный], MP3 2.0, 128 kbps
Аудио #2: английский, оригинал, MP3 2.0, 128 kbps

Код:

Общее
Полное имя                               : \Lost.Girl.s05.WEBDLRip.NewStudio\Lost.Girl.s05e01.WEBDLRip.NewStudio.avi
Формат                                   : AVI
Формат/Информация                        : Audio Video Interleave
Размер файла                             : 550 Мбайт
Продолжительность                        : 44 м.
Общий поток                              : 1733 Кбит/сек
Программа кодирования                    : VirtualDubMod 1.5.10.2 (build 2540/release)
Библиотека кодирования                   : VirtualDubMod build 2540/release

Видео
Идентификатор                            : 0
Формат                                   : MPEG-4 Visual
Профиль формата                          : Advanced Simple@L5
Параметр BVOP формата                    : 2
Параметр QPel формата                    : Нет
Параметр GMC формата                     : Без точки перехода
Параметр матрицы формата                 : Default (MPEG)
Идентификатор кодека                     : XVID
Идентификатор кодека/Подсказка           : XviD
Продолжительность                        : 44 м.
Битрейт                                  : 1463 Кбит/сек
Ширина                                   : 720 пикселей
Высота                                   : 400 пикселей
Соотношение сторон                       : 16:9
Частота кадров                           : 23,976 кадра/сек
Цветовое пространство                    : YUV
Субдискретизация насыщенности            : 4:2:0
Битовая глубина                          : 8 бит
Тип развёртки                            : Прогрессивная
Метод сжатия                             : С потерями
Бит/(Пиксели*Кадры)                      : 0.212
Размер потока                            : 464 Мбайт (84%)
Библиотека кодирования                   : XviD 64

Аудио #1
Идентификатор                            : 1
Формат                                   : MPEG Audio
Версия формата                           : Version 1
Профиль формата                          : Layer 3
Режим                                    : Joint stereo
Расширение режима                        : MS Stereo
Идентификатор кодека                     : 55
Идентификатор кодека/Подсказка           : MP3
Продолжительность                        : 44 м.
Вид битрейта                             : Постоянный
Битрейт                                  : 128 Кбит/сек
Каналы                                   : 2 канала
Частота                                  : 48,0 КГц
Метод сжатия                             : С потерями
Размер потока                            : 40,6 Мбайт (7%)
Выравнивание                             : Соединение по промежуткам
Продолжительность промежутка             : 42  мс. (1,00 видеокадр)
Время предзагрузки промежутка            : 504  мс.
Библиотека кодирования                   : LAME3.99r
Настройки программы                      : -m j -V 4 -q 2 -lowpass 17 -b 128

Аудио #2
Идентификатор                            : 2
Формат                                   : MPEG Audio
Версия формата                           : Version 1
Профиль формата                          : Layer 3
Режим                                    : Joint stereo
Расширение режима                        : MS Stereo
Идентификатор кодека                     : 55
Идентификатор кодека/Подсказка           : MP3
Продолжительность                        : 44 м.
Вид битрейта                             : Постоянный
Битрейт                                  : 128 Кбит/сек
Каналы                                   : 2 канала
Частота                                  : 48,0 КГц
Метод сжатия                             : С потерями
Размер потока                            : 40,6 Мбайт (7%)
Выравнивание                             : Соединение по промежуткам
Продолжительность промежутка             : 42  мс. (1,00 видеокадр)
Время предзагрузки промежутка            : 504  мс.
Библиотека кодирования                   : LAME3.99r
Настройки программы                      : -m j -V 4 -q 2 -lowpass 17 -b 128

Внимание! Раздача ведётся путём добавления новых серий.
При каждом добавлении создаётся новый торрент. Чтобы начать докачку новой серии, пользователям необходимо сделать следующее:
1. Остановить скачивание,
2. Удалить старый торрент у себя из клиента (старые серии удалять не надо),
3. Скачать новый торрент и запустить его у себя в клиенте вместо старого, при этом указать клиенту путь в старую папку куда и должно происходить скачивание новых серий.
Ваш клиент при этом должен произвести хеширование (проверку) старой папки (если не производит сам - помогите ему сделать это), и будет докачивать только те серии которых у вас ещё нет. Старые серии при этом не удаляются, а продолжают раздаваться!
Если вы уже удалили старые серии, то предотвратить повторную закачку старых серий можно, отжав галочку в соответствующих местах при запуске нового торрента.
Релиз группы:

picpicpicpicpic
Для увеличения картинки щелкните мышкой по превью


02.11.15. Раздача обновлена!
Добавлена 16, последняя серия. Сезон представлен полностью.
Перекачайте торрент файл!

Этот торрент недоступен для скачивания без регистрации, однако доступен по публичной magnet-ссылке (источники с публичных трекеров). Перед использованием ссылки прочтите, пожалуйста Пользовательское соглашение, а также как можно дольше оставайтесь на раздаче! Для того, чтобы скачать сам торрент-файл (который видит больше источников), а также для того, чтобы поблагодарить релизера, вам необходимо зарегистрироваться. Если регистрироваться лень - вы можете также попробовать скачать релиз по нашим партнерским ссылкам ниже.

[underverse.su].t58308.torrent
Трекер: Зарегистрирован   [ 02.11.2015 08:18 ]  

Статус: проверено (by makkol at 02.11.2015 12:22)
Поблагодарили: пока никто не поблагодарил...
Тип торрента: публичный - доступные источники с открытых трекеров: 
Размер: 8,61 GB (занимает 1,97 DVDR, для записи нужно 2 болванки DVDR/RW)
 
 
Похожие темы
Форум Тема Автор Торрент Отв. Посл. сооб.
Зарубежные сериалы Зов крови / Потерянная / Фэйри / Lost Girl / Сезон 4 (1-13 серии из 13) (Стив ДиМарко, Паоло Барзмен, Рон Мерфи) [2013 г., фэнтези, драма, WEB-DLRip] DVO + Original older
0 | 0

0 | 602

3

17.09.2015 04:25



Последний раз редактировалось: older (02.11.2015 08:18), всего редактировалось 4 раз(а)

older Пол:Муж

25-Сен-2015 07:42

25.09.15. Раздача обновлена!
Добавлена 11 серия.
Перекачайте торрент файл!

older Пол:Муж

12-Окт-2015 17:58

12.10.15. Раздача обновлена!
Добавлены 12-13 серии.
Перекачайте торрент файл!

older Пол:Муж

16-Окт-2015 02:52

16.10.15. Раздача обновлена!
Добавлена 14 серия.
Перекачайте торрент файл!

older Пол:Муж

22-Окт-2015 04:43

22.10.15. Раздача обновлена!
Добавлена 15 серия.
Перекачайте торрент файл!

older Пол:Муж

02-Ноя-2015 08:18

02.11.15. Раздача обновлена!
Добавлена 16, последняя серия. Сезон представлен полностью.
Перекачайте торрент файл!

Яндекс.Метрика powered by Sphinx


В Н И М А Н И Е
Сайт не распространяет и не хранит электронные версии произведений, а лишь бесплатно и без коммерческой выгоды (не требуя взамен платы,
SMS и т.д.) предоставляет доступ к создаваемому пользователями каталогу ссылок на торрент-файлы, которые содержат только списки хеш-сумм.
Убедительная просьба с жалобами обращаться напрямую к пользователю, разместившему торрент файл.

Вверх