Loading...
Error

Астрал 3 / Insidious: Chapter 3 (Ли Уоннелл) [2015 г., ужасы, WEB-DLRip] Dub

Статистика раздачи
Размер:  1,42 GB   |    Зарегистрирован:  1 год 2 месяца   |    Скачан:  13 раз

Полного источника не было: 1 месяц 7 дней

Сидов:  0  |  0 KB/s  ]   Личеров:  0  |  0 KB/s  ]

* - сиды/пиры с внешних источников

   
 
Автор Сообщение

makkol Пол:Муж

16-Сен-2015 22:13

Астрал 3 / Insidious: Chapter 3
«У каждой истории есть начало...»


Год выпуска: 2015
Жанр: ужасы
Производство: Канада , США [Automatik Entertainment, Blumhouse Productions, Entertainment One]
Режиссер: Ли Уоннелл
В ролях: Стефани Скотт, Дермот Малруни, Энгус Сэмпсон, Ли Уоннелл, Лин Шэй, Тейт Берни, Майкл Рид МакКей, Стив Култер, Хейли Кийоко, Корбетт Так
Сюжет фильма:
История о том, как одаренный экстрасенс Элис Рейнер неохотно соглашается использовать свои способности для установления связи с мертвыми, чтобы помочь девочке-подростку, которая стала мишенью для опасной сверхъестественной сущности.

  • Мировая премьера: 28 мая 2015
  • Российская премьера: 4 июня 2015
  • Релиз на DVD и Blu-Ray: 8 октября 2015


Качество видео: WEB-DLRip

Продолжительность: 01:37:20
Формат: AVI
Видео: XviD, 720x304 (2.35:1), 23.976 fps, 1699 kbps
Аудио: русский, дублированный (iTunes), AC3 5.1, 48 kHz, 384 kbps

Код:

Общее
Полное имя : ACtra1.3.2015.D.WEB-DLRip.avi
Формат : AVI
Формат/Информация : Audio Video Interleave
Размер файла : 1,42 Гбайт
Продолжительность : 1 ч. 37 м.
Общий поток : 2093 Кбит/сек
Программа кодирования : VirtualDubMod 1.5.10.3 | (build 2550/release)
Библиотека кодирования : VirtualDubMod build 2550/release

Видео
Идентификатор : 0
Формат : MPEG-4 Visual
Профиль формата : Advanced Simple@L5
Параметр BVOP формата : 2
Параметр QPel формата : Нет
Параметр GMC формата : Без точки перехода
Параметр матрицы формата : Default (MPEG)
Идентификатор кодека : XVID
Идентификатор кодека/Подсказка : XviD
Продолжительность : 1 ч. 37 м.
Битрейт : 1699 Кбит/сек
Ширина : 720 пикселей
Высота : 304 пикселя
Соотношение сторон : 2,35:1
Частота кадров : 23,976 кадра/сек
Цветовое пространство : YUV
Субдискретизация насыщенности : 4:2:0
Битовая глубина : 8 бит
Тип развёртки : Прогрессивная
Метод сжатия : С потерями
Бит/(Пиксели*Кадры) : 0.324
Размер потока : 1,16 Гбайт (81%)
Библиотека кодирования : XviD 1.2.1 (UTC 2008-12-04)

Аудио
Идентификатор : 1
Формат : AC-3
Формат/Информация : Audio Coding 3
Расширение режима : CM (complete main)
Параметр Endianness формата : Big
Идентификатор кодека : 2000
Продолжительность : 1 ч. 37 м.
Вид битрейта : Постоянный
Битрейт : 384 Кбит/сек
Каналы : 6 каналов
Расположение каналов : Front: L C R, Side: L R, LFE
Частота : 48,0 КГц
Метод сжатия : С потерями
Размер потока : 267 Мбайт (18%)
Выравнивание : Разделение по промежуткам
Продолжительность промежутка : 42 мс. (1,00 видеокадр)
Время предзагрузки промежутка : 500 мс.
picpicpicpicpic
Для увеличения картинки щелкните мышкой по превью

Этот торрент недоступен для скачивания без регистрации, однако доступен по публичной magnet-ссылке (источники с публичных трекеров). Перед использованием ссылки прочтите, пожалуйста Пользовательское соглашение, а также как можно дольше оставайтесь на раздаче! Для того, чтобы скачать сам торрент-файл (который видит больше источников), а также для того, чтобы поблагодарить релизера, вам необходимо зарегистрироваться. Если регистрироваться лень - вы можете также попробовать скачать релиз по нашим партнерским ссылкам ниже.

[underverse.su].t58301.torrent
Трекер: Зарегистрирован   [ 16.09.2015 22:13 ]  

Статус: T временная (by makkol at 17.09.2015 11:03)
Поблагодарили: пока никто не поблагодарил...
Тип торрента: публичный - доступные источники с открытых трекеров: 
Размер: 1,42 GB (занимает 0,33 DVDR, для записи нужно 1 болванка DVDR/RW)
 
 
Похожие темы
Форум Тема Автор Торрент Отв. Посл. сооб.
T Зарубежное кино [DVDRip, Low-Res HDRip, и т.д.] Астрал 3 / Insidious: Chapter 3 (Ли Уоннелл) [2015 г., Ужасы, WEBRip] Dub (RUS, Чистый звук) Ведьмочка
466 | 4

0 | 688

38

03.07.2015 13:46

T Зарубежное кино [DVDRip, Low-Res HDRip, и т.д.] Астрал 3 / Insidious: Chapter 3 (Ли Уоннелл) [2015 г., ужасы, триллер, драма, WEB-DLRip-AVC] Dub ultarasbarcelona
9 | 0

0 | 525

15

18.09.2015 17:29

T Зарубежное кино [HDDVDRip / BDRip / WEB-DL / HDTV 1080/720р] Астрал 3 / Insidious: Chapter 3 (Ли Уоннелл) [2015 г., Ужасы, WEBRip 720p] Dub (RUS, Чистый звук) Ведьмочка
41 | 1

0 | 495

7

03.07.2015 13:26

T Зарубежное кино [HDDVDRip / BDRip / WEB-DL / HDTV 1080/720р] Астрал 3 / Insidious: Chapter 3 (Ли Уоннелл) [2015 г., Ужасы, WEBRip 1080p] Dub (RUS, Чистый звук) + Original (ENG) Ведьмочка
119 | 1

0 | 698

34

03.07.2015 13:34

T Зарубежное кино [HDDVDRip / BDRip / WEB-DL / HDTV 1080/720р] Астрал 3 / Insidious: Chapter 3 (Ли Уоннелл) [2015 г., ужасы, WEB-DL 720p] Dub makkol
39 | 1

0 | 326

10

16.09.2015 22:22

T Зарубежное кино [HDDVDRip / BDRip / WEB-DL / HDTV 1080/720р] Астрал 3 / Insidious: Chapter 3 (Ли Уоннелл) [2015 г., ужасы, WEB-DL 1080p] Dub makkol
16 | 0

0 | 400

23

16.09.2015 22:30

T Новинки кино [CAMRip, TS, DVDScr, WP, TC] Астрал 3 / Insidious: Chapter 3 (Ли Уоннелл) [2015 г., ужасы, CAMRip] Dub Паукан
10 | 0

0 | 750

16

08.06.2015 09:26

T Новинки кино [CAMRip, TS, DVDScr, WP, TC] Астрал 3 / Insidious: Chapter 3 (Ли Уоннелл) [2015 г., Ужасы, WEBRip] Dub (RUS, Звук с TS) Ведьмочка
24 | 0

2 | 819

43

03.07.2015 13:06


Яндекс.Метрика powered by Sphinx


В Н И М А Н И Е
Сайт не распространяет и не хранит электронные версии произведений, а лишь бесплатно и без коммерческой выгоды (не требуя взамен платы,
SMS и т.д.) предоставляет доступ к создаваемому пользователями каталогу ссылок на торрент-файлы, которые содержат только списки хеш-сумм.
Убедительная просьба с жалобами обращаться напрямую к пользователю, разместившему торрент файл.

Вверх