Loading...
Error

Сложности / Complications / Сезон 1 (1-10 серии из 10) (Мэтт Никс, Скотт Питерс, Арвин Браун) [2015 г., триллер, драма, криминал, WEB-DLRip] MVO + Original

Статистика раздачи
Размер:  4,84 GB   |    Зарегистрирован:  1 год 2 месяца   |    Скачан:  9 раз

Полного источника не было: 4 месяца 27 дней

Сидов:  0  |  0 KB/s  ]   Личеров:  0  |  0 KB/s  ]

* - сиды/пиры с внешних источников

   
 
Автор Сообщение

older Пол:Муж

16-Сен-2015 08:30

Сложности / Complications / Сезон 1


Год выпуска: 2015
Жанр: триллер, драма, криминал
Страна: США
Режиссер: Мэтт Никс, Скотт Питерс, Арвин Браун
В ролях: Джессика Зор, Бэт Рисграф, Лорен Стемайл, Альберт С. Бейтс, Джейсон О Мара, Кристин Хорн, Крис Чок, РонРико Ли, Джейден Бёрд
Сюжет фильма:
Доктор Джон Эллис считал свою жизнь устоявшейся до того момента, пока не оказался в центре бандитской перестрелки. Всё закончилась тем, что он спас мальчика, которого расстреляли из движущегося авто, а нападавшие были убиты. Но Эллис переосмысливает своё отношение к медицине в частности и к жизни в целом, когда узнаёт, что мальчику всё ещё угрожает смертельная опасность.

Качество видео: WEB-DLRip

Продолжительность: ~ 00:43:00
Формат: AVI
Видео: XviD, 720х400, 763 kbps
Аудио #1: многоголосый закадровый [любительский], MP3 2.0, 192 kbps
Аудио #2: английский, оригинал, MP3 2.0, 192 kbps

Код:

Общее
Полное имя                               : \Complications (S01) BaibaKo\Complications.S01E01.WEB-DLRip.XviD.Rus.Eng.BaibaKо.avi
Формат                                   : AVI
Формат/Информация                        : Audio Video Interleave
Размер файла                             : 528 Мбайт
Продолжительность                        : 1 ч. 3 м.
Общий поток                              : 1160 Кбит/сек
Программа кодирования                    : VirtualDubMod 1.5.10.3 | www.virtualdub-fr.org || (build 2550/release)
Библиотека кодирования                   : VirtualDubMod build 2550/release

Видео
Идентификатор                            : 0
Формат                                   : MPEG-4 Visual
Профиль формата                          : Advanced Simple@L5
Параметр BVOP формата                    : 2
Параметр QPel формата                    : Нет
Параметр GMC формата                     : Без точки перехода
Параметр матрицы формата                 : Default (H.263)
Идентификатор кодека                     : XVID
Идентификатор кодека/Подсказка           : XviD
Продолжительность                        : 1 ч. 3 м.
Битрейт                                  : 763 Кбит/сек
Ширина                                   : 720 пикселей
Высота                                   : 400 пикселей
Соотношение сторон                       : 16:9
Частота кадров                           : 23,976 кадра/сек
Цветовое пространство                    : YUV
Субдискретизация насыщенности            : 4:2:0
Битовая глубина                          : 8 бит
Тип развёртки                            : Прогрессивная
Метод сжатия                             : С потерями
Бит/(Пиксели*Кадры)                      : 0.110
Размер потока                            : 347 Мбайт (66%)
Библиотека кодирования                   : XviD 1.2.1 (UTC 2008-12-04)

Аудио #1
Идентификатор                            : 1
Формат                                   : MPEG Audio
Версия формата                           : Version 1
Профиль формата                          : Layer 3
Режим                                    : Joint stereo
Расширение режима                        : MS Stereo
Идентификатор кодека                     : 55
Идентификатор кодека/Подсказка           : MP3
Продолжительность                        : 1 ч. 3 м.
Вид битрейта                             : Постоянный
Битрейт                                  : 192 Кбит/сек
Каналы                                   : 2 канала
Частота                                  : 48,0 КГц
Метод сжатия                             : С потерями
Размер потока                            : 87,4 Мбайт (17%)
Выравнивание                             : Соединение по промежуткам
Продолжительность промежутка             : 42  мс. (1,00 видеокадр)
Время предзагрузки промежутка            : 504  мс.
Библиотека кодирования                   : LAME3.98.4

Аудио #2
Идентификатор                            : 2
Формат                                   : MPEG Audio
Версия формата                           : Version 1
Профиль формата                          : Layer 3
Режим                                    : Joint stereo
Расширение режима                        : MS Stereo
Идентификатор кодека                     : 55
Идентификатор кодека/Подсказка           : MP3
Продолжительность                        : 1 ч. 3 м.
Вид битрейта                             : Постоянный
Битрейт                                  : 192 Кбит/сек
Каналы                                   : 2 канала
Частота                                  : 48,0 КГц
Метод сжатия                             : С потерями
Размер потока                            : 87,4 Мбайт (17%)
Выравнивание                             : Соединение по промежуткам
Продолжительность промежутка             : 42  мс. (1,00 видеокадр)
Время предзагрузки промежутка            : 504  мс.

Релиз группы:

picpicpicpicpic
Для увеличения картинки щелкните мышкой по превью

Этот торрент недоступен для скачивания без регистрации, однако доступен по публичной magnet-ссылке (источники с публичных трекеров). Перед использованием ссылки прочтите, пожалуйста Пользовательское соглашение, а также как можно дольше оставайтесь на раздаче! Для того, чтобы скачать сам торрент-файл (который видит больше источников), а также для того, чтобы поблагодарить релизера, вам необходимо зарегистрироваться. Если регистрироваться лень - вы можете также попробовать скачать релиз по нашим партнерским ссылкам ниже.

[underverse.su].t58291.torrent
Трекер: Зарегистрирован   [ 16.09.2015 08:30 ]  

Статус: проверено (by makkol at 16.09.2015 08:35)
Поблагодарили: 1 человек
Тип торрента: публичный - доступные источники с открытых трекеров: 
Размер: 4,84 GB (занимает 1,1 DVDR, для записи нужно 2 болванки DVDR/RW)
 
 

Яндекс.Метрика powered by Sphinx


В Н И М А Н И Е
Сайт не распространяет и не хранит электронные версии произведений, а лишь бесплатно и без коммерческой выгоды (не требуя взамен платы,
SMS и т.д.) предоставляет доступ к создаваемому пользователями каталогу ссылок на торрент-файлы, которые содержат только списки хеш-сумм.
Убедительная просьба с жалобами обращаться напрямую к пользователю, разместившему торрент файл.

Вверх