Loading...
Error

Кровососущие подонки / Bloodsucking Bastards (Брайан Джеймс О’Коннелл) [2015 г., ужасы, комедия, WEB-DLRip] DVO

Статистика раздачи
Размер:  1,38 GB   |    Зарегистрирован:  1 год 2 месяца   |    Скачан:  14 раз

Полного источника не было: 3 месяца 15 дней

Сидов:  0  |  0 KB/s  ]   Личеров:  0  |  0 KB/s  ]

* - сиды/пиры с внешних источников

   
 
Автор Сообщение

makkol Пол:Муж

15-Сен-2015 22:30

Кровососущие подонки / Bloodsucking Bastards
«Работа. Высосет из тебя жизнь.»


Год выпуска: 2015
Жанр: ужасы, комедия
Производство: США [Fortress Features, MTY Productions]
Режиссер: Брайан Джеймс О’Коннелл
В ролях: Фрэн Кранц, Педро Паскаль, Джои Керн, Джоэль Мюррей, Эмма Фитцпатрик, Ивет Йэтс, Джастин Уэр, Маршалл Такер, Дэвид Ф. Парк
Сюжет фильма:
Трудяга Эван давно работает в корпорации и ждет повышения. Однако его босс отдает эту должность заклятому врагу Эвана — Максу. Вскоре в офисе начинают происходить изменения, и оказывается, что Макс — настоящий вампир…

  • Мировая премьера: 22 января 2015


Качество видео: WEB-DLRip

Продолжительность: 01:24:03
Формат: AVI
Видео: XviD, 720x320 (2.25:1), 23.976 fps, 1960 kbps
Аудио: русский, любительский двухголосый закадровый (den904 & DeadSno), AC3 5.1, 48 kHz, 384 kbps

Код:

Общее
Полное имя : Krovososushhie.podonki.2015.L2.WEB-DLRip.avi
Формат : AVI
Формат/Информация : Audio Video Interleave
Размер файла : 1,38 Гбайт
Продолжительность : 1 ч. 24 м.
Общий поток : 2354 Кбит/сек
Программа кодирования : VirtualDubMod 1.5.10.2 (build 2540/release)
Библиотека кодирования : VirtualDubMod build 2540/release

Видео
Идентификатор : 0
Формат : MPEG-4 Visual
Профиль формата : Advanced Simple@L5
Параметр BVOP формата : 2
Параметр QPel формата : Нет
Параметр GMC формата : Без точки перехода
Параметр матрицы формата : Default (H.263)
Режим смешивания : Сжатый битовый поток
Идентификатор кодека : XVID
Идентификатор кодека/Подсказка : XviD
Продолжительность : 1 ч. 24 м.
Битрейт : 1960 Кбит/сек
Ширина : 720 пикселей
Высота : 320 пикселей
Соотношение сторон : 2,25:1
Частота кадров : 23,976 кадра/сек
Цветовое пространство : YUV
Субдискретизация насыщенности : 4:2:0
Битовая глубина : 8 бит
Тип развёртки : Прогрессивная
Метод сжатия : С потерями
Бит/(Пиксели*Кадры) : 0.355
Размер потока : 1,15 Гбайт (83%)
Библиотека кодирования : XviD 66

Аудио
Идентификатор : 1
Формат : AC-3
Формат/Информация : Audio Coding 3
Расширение режима : CM (complete main)
Идентификатор кодека : 2000
Продолжительность : 1 ч. 24 м.
Вид битрейта : Постоянный
Битрейт : 384 Кбит/сек
Каналы : 6 каналов
Расположение каналов : Front: L C R, Side: L R, LFE
Частота : 48,0 КГц
Битовая глубина : 16 бит
Метод сжатия : С потерями
Размер потока : 231 Мбайт (16%)
Выравнивание : Разделение по промежуткам
Продолжительность промежутка : 42 мс. (1,00 видеокадр)
Время предзагрузки промежутка : 500 мс.
Релиз группы:

picpicpicpicpic
Для увеличения картинки щелкните мышкой по превью

Этот торрент недоступен для скачивания без регистрации, однако доступен по публичной magnet-ссылке (источники с публичных трекеров). Перед использованием ссылки прочтите, пожалуйста Пользовательское соглашение, а также как можно дольше оставайтесь на раздаче! Для того, чтобы скачать сам торрент-файл (который видит больше источников), а также для того, чтобы поблагодарить релизера, вам необходимо зарегистрироваться. Если регистрироваться лень - вы можете также попробовать скачать релиз по нашим партнерским ссылкам ниже.

[underverse.su].t58282.torrent
Трекер: Зарегистрирован   [ 15.09.2015 22:30 ]  

Статус: проверено (by makkol at 16.09.2015 10:57)
Поблагодарили: пока никто не поблагодарил...
Тип торрента: публичный - доступные источники с открытых трекеров: 
Размер: 1,38 GB (занимает 0,32 DVDR, для записи нужно 1 болванка DVDR/RW)
 
 
Похожие темы
Форум Тема Автор Торрент Отв. Посл. сооб.
Зарубежное кино [HDDVDRip / BDRip / WEB-DL / HDTV 1080/720р] Кровососущие подонки / Bloodsucking Bastards (Брайан Джеймс О’Коннелл) [2015 г., ужасы, комедия, WEB-DL 720p] DVO + Original makkol
14 | 0

0 | 529

11

15.09.2015 22:42


Яндекс.Метрика powered by Sphinx


В Н И М А Н И Е
Сайт не распространяет и не хранит электронные версии произведений, а лишь бесплатно и без коммерческой выгоды (не требуя взамен платы,
SMS и т.д.) предоставляет доступ к создаваемому пользователями каталогу ссылок на торрент-файлы, которые содержат только списки хеш-сумм.
Убедительная просьба с жалобами обращаться напрямую к пользователю, разместившему торрент файл.

Вверх