Loading...
Error

Страшилки третьего измерения / Tales of the Third Dimension (Уорт Китер, Том Макинтайр, Эрл Оуэнсби) [1984 г., ужасы, комедия, VHSRip] AVO + Original

Статистика раздачи
Размер:  1,43 GB   |    Зарегистрирован:  1 год 2 месяца   |    Скачан:  11 раз
Сидов:  1  |  0 KB/s  ]   Личеров:  0  |  0 KB/s  ]

* - сиды/пиры с внешних источников

   
 
Автор Сообщение

makkol Пол:Муж

15-Сен-2015 13:56

Страшилки третьего измерения / Tales of the Third Dimension


Год выпуска: 1984
Жанр: ужасы, комедия
Страна: США
Режиссер: Уорт Китер, Том Макинтайр, Эрл Оуэнсби
В ролях: Роберт Бладуорф, Кент Райтери, Нил Пауэлл, Джоэл Пэджет, Бенджи Хелбейн, Кэти О’Тул, Кевин Кэмпбелл, Уильям Т. Хикс, Кейт Хантер, Терри Лофлин, Леон Риппи, Дэнди Стивенсон, Фран Тейлор, Хелен Трайон
Сюжет фильма:
Фильм состоит из трех историй, которые рассказывает древняя мумия, называющая себя Игорем.
1. "Молодая кровь"
Это история о благородной семейной паре из Восточной Европы, которая решила усыновить ребёнка. Специально для этого был вызван социальный работник г-жа Маркетт. Ей было поставлено условие, что вопрос будет обсуждаться только ночью. Г-н Дадли, являющийся партнером социального работника, предположил, что надо быть более осторожным в вопросе пригодности пары для усыновления. Но когда ему предъявили всех детей этой пары, то он соглашается, предупредив, что мальчик является проблемным. Но проблемными были и потенциальные приемные родители. Они – вампиры…
2. "Хранители"
Чарли и Фредди узнают у могильщика, где была захоронена недавно умершая молодая богатая женщина. Они под покровом ночи вскрывают могилу, и их добычей становится большое кольцо с бриллиантом, которое пришлось отрезать вместе с пальцем покойницы. Легкая добыча явилась причиной того, что у преступников разыгрался аппетит, и они уже силой выбивают у могильщика место расположения входа в катакомбы, где вместе с покойниками захоронены несметные богатства…
3. "Подарок на Рождество"
Родители отправляют своих маленьких детей праздновать Рождество к бабушке. Это большая радость и для детей, которые у любящей бабушки могут делать все, что захотят, и для бабушки, которая души не чает в своих внуках. Но психическое здоровье старухи полностью зависит от регулярности приема таблеток, которые у нее закончились… (vill)

Качество видео: VHSRip

Продолжительность: 01:33:56
Формат: AVI
Видео: XviD, 720x540 (4:3), 29.970 fps, 1835 kbps
Аудио #1: русский, авторский одноголосый закадровый, AC3 2.0, 48 kHz, 192 kbps
Аудио #2: английский, оригинал, MP3 2.0, 48 kHz, 128 kbps

Код:

Общее
Полное имя                               : Tales.of.the.Third.Dimension.1984.VHSRip.avi
Формат                                   : AVI
Формат/Информация                        : Audio Video Interleave
Размер файла                             : 1,43 Гбайт
Продолжительность                        : 1 ч. 33 м.
Общий поток                              : 2172 Кбит/сек
Программа кодирования                    : VirtualDubMod 1.5.10.2 (build 2540/release)
Библиотека кодирования                   : VirtualDubMod build 2540/release

Видео
Идентификатор                            : 0
Формат                                   : MPEG-4 Visual
Профиль формата                          : Advanced Simple@L5
Параметр BVOP формата                    : 2
Параметр QPel формата                    : Нет
Параметр GMC формата                     : Без точки перехода
Параметр матрицы формата                 : Default (MPEG)
Идентификатор кодека                     : XVID
Идентификатор кодека/Подсказка           : XviD
Продолжительность                        : 1 ч. 33 м.
Битрейт                                  : 1835 Кбит/сек
Ширина                                   : 720 пикселей
Высота                                   : 540 пикселей
Соотношение сторон                       : 4:3
Частота кадров                           : 29,970 кадров/сек
Цветовое пространство                    : YUV
Субдискретизация насыщенности            : 4:2:0
Битовая глубина                          : 8 бит
Тип развёртки                            : Прогрессивная
Метод сжатия                             : С потерями
Бит/(Пиксели*Кадры)                      : 0.157
Размер потока                            : 1,20 Гбайт (84%)
Библиотека кодирования                   : XviD 1.2.1 (UTC 2008-12-04)

Аудио #1
Идентификатор                            : 1
Формат                                   : AC-3
Формат/Информация                        : Audio Coding 3
Расширение режима                        : CM (complete main)
Параметр Endianness формата              : Big
Идентификатор кодека                     : 2000
Продолжительность                        : 1 ч. 33 м.
Вид битрейта                             : Постоянный
Битрейт                                  : 192 Кбит/сек
Каналы                                   : 2 канала
Расположение каналов                     : Front: L R
Частота                                  : 48,0 КГц
Метод сжатия                             : С потерями
Размер потока                            : 129 Мбайт (9%)
Выравнивание                             : Разделение по промежуткам
Продолжительность промежутка             : 33  мс. (1,00 видеокадр)
Время предзагрузки промежутка            : 500  мс.

Аудио #2
Идентификатор                            : 2
Формат                                   : MPEG Audio
Версия формата                           : Version 1
Профиль формата                          : Layer 3
Идентификатор кодека                     : 55
Идентификатор кодека/Подсказка           : MP3
Продолжительность                        : 1 ч. 33 м.
Вид битрейта                             : Постоянный
Битрейт                                  : 128 Кбит/сек
Каналы                                   : 2 канала
Частота                                  : 48,0 КГц
Метод сжатия                             : С потерями
Размер потока                            : 86,0 Мбайт (6%)
Выравнивание                             : Разделение по промежуткам
Продолжительность промежутка             : 33  мс. (1,00 видеокадр)
Время предзагрузки промежутка            : 500  мс.
Перевод и озвучивание: Антон Алексеев
Сведение звука: Diablo
Организация перевода: Minhers76
picpicpicpicpic
Для увеличения картинки щелкните мышкой по превью

Этот торрент недоступен для скачивания без регистрации, однако доступен по публичной magnet-ссылке (источники с публичных трекеров). Перед использованием ссылки прочтите, пожалуйста Пользовательское соглашение, а также как можно дольше оставайтесь на раздаче! Для того, чтобы скачать сам торрент-файл (который видит больше источников), а также для того, чтобы поблагодарить релизера, вам необходимо зарегистрироваться. Если регистрироваться лень - вы можете также попробовать скачать релиз по нашим партнерским ссылкам ниже.

[underverse.su].t58270.torrent
Трекер: Зарегистрирован   [ 15.09.2015 13:56 ]  

Статус: проверено (by makkol at 16.09.2015 10:50)
Поблагодарили: 2 человека
Тип торрента: публичный - доступные источники с открытых трекеров: 
Размер: 1,43 GB (занимает 0,33 DVDR, для записи нужно 1 болванка DVDR/RW)
 
 

Яндекс.Метрика powered by Sphinx


В Н И М А Н И Е
Сайт не распространяет и не хранит электронные версии произведений, а лишь бесплатно и без коммерческой выгоды (не требуя взамен платы,
SMS и т.д.) предоставляет доступ к создаваемому пользователями каталогу ссылок на торрент-файлы, которые содержат только списки хеш-сумм.
Убедительная просьба с жалобами обращаться напрямую к пользователю, разместившему торрент файл.

Вверх