Loading...
Error

Пощечина / The Slap / Сезон 1 (1-8 серии из 8) (Кен Олин, Майкл Моррис, Лиза Холоденко) [2015 г., драма, WEB-DLRip] MVO + Original

Статистика раздачи
Размер:  4,3 GB   |    Зарегистрирован:  1 год 2 месяца   |    Скачан:  1 раз

Полного источника не было: 1 год 2 месяца

Сидов:  0  |  0 KB/s  ]   Личеров:  0  |  0 KB/s  ]

* - сиды/пиры с внешних источников

   
 
Автор Сообщение

older Пол:Муж

15-Сен-2015 10:13

Пощечина / The Slap / Сезон 1


Год выпуска: 2015
Жанр: драма
Страна: США
Режиссер: Кен Олин, Майкл Моррис, Лиза Холоденко
В ролях: Пенн Бэджли, Брайан Кокс, Мелисса Джордж, Лукас Хеджес, Макензи Ли, Тэнди Ньютон, Закари Куинто, Томас Садоски, Питер Сарсгаард, Дилан Шомбинг
Сюжет фильма:
Мини-сериал расскажет о том, какую лавину событий привела в действие оплеуха, которой наградил один из героев чужого расшалившегося ребенка, от внутрисемейных разборок до судебных исков, вскрывающих систему американских ценностей.

Качество видео: WEB-DLRip

Продолжительность: ~ 00:42:00
Формат: AVI
Видео: XviD, 720х400, 1536 kbps
Аудио #1: русский, многоголосый закадровый [профессиональный], MP3 2.0, 128 kbps
Аудио #2: английский, оригинал, MP3 2.0, 128 kbps
01. Гектор / Hector
02. Гарри / Harry
03. Анук / Anouk
04. Манолис / Manolis
05. Конни / Connie
06. Аиша / Aisha
07. Рози / Rosie
08. Ричи / Ritchie

Код:

Общее
Полное имя                               : \Oplevuha.P.2015.OLEG270877.NewStudio\The.Slap.US.s01e01.WEBDLRip.*другой трекер*.avi
Формат                                   : AVI
Формат/Информация                        : Audio Video Interleave
Размер файла                             : 550 Мбайт
Продолжительность                        : 42 м.
Общий поток                              : 1806 Кбит/сек
Программа кодирования                    : VirtualDubMod 1.5.10.2 (build 2540/release)
Библиотека кодирования                   : VirtualDubMod build 2540/release

Видео
Идентификатор                            : 0
Формат                                   : MPEG-4 Visual
Профиль формата                          : Advanced Simple@L5
Параметр BVOP формата                    : 2
Параметр QPel формата                    : Нет
Параметр GMC формата                     : Без точки перехода
Параметр матрицы формата                 : Default (MPEG)
Идентификатор кодека                     : XVID
Идентификатор кодека/Подсказка           : XviD
Продолжительность                        : 42 м.
Битрейт                                  : 1536 Кбит/сек
Ширина                                   : 720 пикселей
Высота                                   : 400 пикселей
Соотношение сторон                       : 16:9
Частота кадров                           : 23,976 кадра/сек
Цветовое пространство                    : YUV
Субдискретизация насыщенности            : 4:2:0
Битовая глубина                          : 8 бит
Тип развёртки                            : Прогрессивная
Метод сжатия                             : С потерями
Бит/(Пиксели*Кадры)                      : 0.222
Размер потока                            : 468 Мбайт (85%)
Библиотека кодирования                   : XviD 64

Аудио #1
Идентификатор                            : 1
Формат                                   : MPEG Audio
Версия формата                           : Version 1
Профиль формата                          : Layer 3
Режим                                    : Joint stereo
Расширение режима                        : MS Stereo
Идентификатор кодека                     : 55
Идентификатор кодека/Подсказка           : MP3
Продолжительность                        : 42 м.
Вид битрейта                             : Постоянный
Битрейт                                  : 128 Кбит/сек
Каналы                                   : 2 канала
Частота                                  : 48,0 КГц
Метод сжатия                             : С потерями
Размер потока                            : 39,0 Мбайт (7%)
Выравнивание                             : Соединение по промежуткам
Продолжительность промежутка             : 42  мс. (1,00 видеокадр)
Время предзагрузки промежутка            : 504  мс.

Аудио #2
Идентификатор                            : 2
Формат                                   : MPEG Audio
Версия формата                           : Version 1
Профиль формата                          : Layer 3
Режим                                    : Joint stereo
Идентификатор кодека                     : 55
Идентификатор кодека/Подсказка           : MP3
Продолжительность                        : 42 м.
Вид битрейта                             : Постоянный
Битрейт                                  : 128 Кбит/сек
Каналы                                   : 2 канала
Частота                                  : 48,0 КГц
Метод сжатия                             : С потерями
Размер потока                            : 39,0 Мбайт (7%)
Выравнивание                             : Соединение по промежуткам
Продолжительность промежутка             : 42  мс. (1,00 видеокадр)
Время предзагрузки промежутка            : 504  мс.
Библиотека кодирования                   : LAME3.99r
Настройки программы                      : -m j -V 4 -q 2 -lowpass 17 -b 128

Релиз группы:

picpicpicpicpic
Для увеличения картинки щелкните мышкой по превью

Этот торрент недоступен для скачивания без регистрации, однако доступен по публичной magnet-ссылке (источники с публичных трекеров). Перед использованием ссылки прочтите, пожалуйста Пользовательское соглашение, а также как можно дольше оставайтесь на раздаче! Для того, чтобы скачать сам торрент-файл (который видит больше источников), а также для того, чтобы поблагодарить релизера, вам необходимо зарегистрироваться. Если регистрироваться лень - вы можете также попробовать скачать релиз по нашим партнерским ссылкам ниже.

[underverse.su].t58246.torrent
Трекер: Зарегистрирован   [ 15.09.2015 10:13 ]  

Статус: проверено (by makkol at 15.09.2015 13:10)
Поблагодарили: пока никто не поблагодарил...
Тип торрента: публичный - доступные источники с открытых трекеров: 
Размер: 4,3 GB (занимает 0,98 DVDR, для записи нужно 1 болванка DVDR/RW)
 
 

Яндекс.Метрика powered by Sphinx


В Н И М А Н И Е
Сайт не распространяет и не хранит электронные версии произведений, а лишь бесплатно и без коммерческой выгоды (не требуя взамен платы,
SMS и т.д.) предоставляет доступ к создаваемому пользователями каталогу ссылок на торрент-файлы, которые содержат только списки хеш-сумм.
Убедительная просьба с жалобами обращаться напрямую к пользователю, разместившему торрент файл.

Вверх