Loading...
Error

Библиотекари / The Librarians / Сезон 1 (1-10 серии из 10) (Джонатан Фрейкс, Марк Роскин, Дин Девлин) [2014 г., фантастика, приключения, WEB-DLRip] MVO

Статистика раздачи
Размер:  6,04 GB   |    Зарегистрирован:  1 год 2 месяца   |    Скачан:  13 раз
Сидов:  1  |  0 KB/s  ]   Личеров:  0  |  0 KB/s  ]

* - сиды/пиры с внешних источников

   
 
Автор Сообщение

older Пол:Муж

15-Сен-2015 09:20

Библиотекари / The Librarians / Сезон 1


Год выпуска: 2014
Жанр: фантастика, приключения
Страна: США
Режиссер: Джонатан Фрейкс, Марк Роскин, Дин Девлин
В ролях: Ноа Уайли, Джон Ларрокетт, Ребекка Ромейн, Кристиан Кейн, Джон Ким, Линди Бут, Лесли-Энн Брандт, Джейн Куртин, Боб Ньюхарт, Бен Эндрюс
Сюжет фильма:
Сериал снят по мотивам серии фильмов «Библиотекарь», повествующей о Флинне Карсене, который узнает, что его миссия заключается в том, чтобы охранять магические артефакты в старинной библиотеке. Он вербует четырёх обычных людей, собирая команду по борьбе с тёмной магией и древними заговорами. Под его руководством они научатся самозащите и боевым приемам, чтобы отправиться на поиски загадочных артефактов и спасти их от злодеев, желающих захватить мир.

Качество видео: WEB-DLRip

Продолжительность: ~ 00:57:00
Формат: AVI
Видео: XviD, 720х400, 1417 kbps
Аудио: русский, многоголосый закадровый [профессиональный], AC3 5.1, 384 kbps

Код:

Общее
Полное имя                               : \The Librarians (S01) LF\The.Librarians.s01e01.XviD.LostFilm.[qqss44].avi
Формат                                   : AVI
Формат/Информация                        : Audio Video Interleave
Размер файла                             : 748 Мбайт
Продолжительность                        : 57 м.
Общий поток                              : 1810 Кбит/сек
Программа кодирования                    : VirtualDubMod 1.5.10.3 | www.virtualdub-fr.org || (build 2550/release)
Библиотека кодирования                   : VirtualDubMod build 2550/release

Видео
Идентификатор                            : 0
Формат                                   : MPEG-4 Visual
Профиль формата                          : Advanced Simple@L5
Параметр BVOP формата                    : 2
Параметр QPel формата                    : Нет
Параметр GMC формата                     : Без точки перехода
Параметр матрицы формата                 : Default (MPEG)
Идентификатор кодека                     : XVID
Идентификатор кодека/Подсказка           : XviD
Продолжительность                        : 57 м.
Битрейт                                  : 1417 Кбит/сек
Ширина                                   : 720 пикселей
Высота                                   : 400 пикселей
Соотношение сторон                       : 16:9
Частота кадров                           : 23,976 кадра/сек
Цветовое пространство                    : YUV
Субдискретизация насыщенности            : 4:2:0
Битовая глубина                          : 8 бит
Тип развёртки                            : Прогрессивная
Метод сжатия                             : С потерями
Бит/(Пиксели*Кадры)                      : 0.205
Размер потока                            : 585 Мбайт (78%)
Библиотека кодирования                   : XviD 73

Аудио
Идентификатор                            : 1
Формат                                   : AC-3
Формат/Информация                        : Audio Coding 3
Расширение режима                        : CM (complete main)
Параметр Endianness формата              : Big
Идентификатор кодека                     : 2000
Продолжительность                        : 57 м.
Вид битрейта                             : Постоянный
Битрейт                                  : 384 Кбит/сек
Каналы                                   : 6 каналов
Расположение каналов                     : Front: L C R, Side: L R, LFE
Частота                                  : 48,0 КГц
Битовая глубина                          : 16 бит
Метод сжатия                             : С потерями
Размер потока                            : 159 Мбайт (21%)
Выравнивание                             : Разделение по промежуткам
Продолжительность промежутка             : 42  мс. (1,00 видеокадр)
Время предзагрузки промежутка            : 500  мс.

Рип: qqss44
Звук: 5.1 Лостфильм - Skyns61
picpicpicpicpic
Для увеличения картинки щелкните мышкой по превью

Этот торрент недоступен для скачивания без регистрации, однако доступен по публичной magnet-ссылке (источники с публичных трекеров). Перед использованием ссылки прочтите, пожалуйста Пользовательское соглашение, а также как можно дольше оставайтесь на раздаче! Для того, чтобы скачать сам торрент-файл (который видит больше источников), а также для того, чтобы поблагодарить релизера, вам необходимо зарегистрироваться. Если регистрироваться лень - вы можете также попробовать скачать релиз по нашим партнерским ссылкам ниже.

[underverse.su].t58245.torrent
Трекер: Зарегистрирован   [ 15.09.2015 09:20 ]  

Статус: проверено (by makkol at 15.09.2015 13:08)
Поблагодарили: 1 человек
Тип торрента: публичный - доступные источники с открытых трекеров: 
Размер: 6,04 GB (занимает 1,38 DVDR, для записи нужно 2 болванки DVDR/RW)
 
 
Похожие темы
Форум Тема Автор Торрент Отв. Посл. сооб.
Зарубежное кино [DVDRip, Low-Res HDRip, и т.д.] Библиотекарь 3: Проклятье чаши Иуды / The Librarian: The Curse of the Judas (Джонатан Фрейкс / Jonathan Frakes) [2008 г., приключения, фэнтези, комедия, боевик, HDTVRip] GUree
0 | 0

0 | 1333

9

24.06.2009 22:54

Зарубежное кино [DVDRip, Low-Res HDRip, и т.д.] Библиотекарь 2: Возвращение в копи царя соломона / The Librarian: Return to King Solomon's Mines (Джонатан Фрайкс) [2006 г., приключения, фэнтези, боевик, комедия, HDTVRip] GUree
0 | 0

0 | 2111

7

24.06.2009 23:54

Зарубежное кино [DVDRip, Low-Res HDRip, и т.д.] Библиотекарь: В поисках копья судьбы. / The Librarian: Quest for the Spear (Питер Уинзер /Peter Winther) [2004 г., приключения, фэнтези, боевик, комедия, HDTVRip] GUree
0 | 0

2 | 1766

7

21.03.2010 19:27

Зарубежное кино [DVDRip, Low-Res HDRip, и т.д.] Библиотекарь 1,2,3 / The Librarian: Quest for the Spear / Return to King Solomon's Mines / The Curse of the Judas Chalice (Питер Уинзер / Peter Winther, Джонатан Фрайкс / Jonathan Frakes) [2004,... STALKOID
0 | 1

0 | 1356

7

19.03.2011 12:35

Другие фильмы Библиотека приключений. Человек-амфибия (Виктор Ющенко) [2016 г., документальный, кинематограф, биография, история, WEBRip] ARI71
1 | 0

1 | 470

1

26.11.2016 10:11

Другие фильмы Библиотека приключений. Пираты Тихого океана (Виктор Ющенко) [2016 г., документальный, кинематограф, история, WEBRip] ARI71
2 | 0

0 | 231

1

20.11.2016 09:32

Учебники, лекции, методическая литература Библиотека "Суть Времени" [1939-2014 г., Образовательная литература, Другой/Разные] RUS svit2012
0 | 3

2 | 1048

9

02.02.2016 12:08

Точные, естественные и инженерные науки Библиотека фонда "Династия" [61 книга] [2006-2015 г., научно-популярная литература, FB2, DJVU, PDF] RUS Паукан
8 | 1

0 | 917

38

16.04.2015 15:53

Коллекции книг, тематические подборки Библиотека дальневосточного романа (23 книги) [1966-1990 г., История, Русская литература, Приключения, Советская проза, PDF, FB2] RUS Evgenii82
2 | 0

0 | 214

3

11.10.2016 13:21

Коллекции книг, тематические подборки Библиотека российского романа (86 книг) [1971-1991 г., Советская проза, исторические романы, FB2] RUS Evgenii82
2 | 0

0 | 215

6

11.10.2016 12:53


Яндекс.Метрика powered by Sphinx


В Н И М А Н И Е
Сайт не распространяет и не хранит электронные версии произведений, а лишь бесплатно и без коммерческой выгоды (не требуя взамен платы,
SMS и т.д.) предоставляет доступ к создаваемому пользователями каталогу ссылок на торрент-файлы, которые содержат только списки хеш-сумм.
Убедительная просьба с жалобами обращаться напрямую к пользователю, разместившему торрент файл.

Вверх