Loading...
Error

Тайны и ложь / Secrets and Lies / Сезон 1 (1-10 серии из 10) (Тимоти Басфилд, Кейт Дэннис, Адам Аркин) [2015 г., драма, детектив, триллер, криминал, HDTVRip] MVO

Статистика раздачи
Размер:  4,78 GB   |    Зарегистрирован:  1 год 2 месяца   |    Скачан:  6 раз

Полного источника не было: 27 дней

Сидов:  0  |  0 KB/s  ]   Личеров:  0  |  0 KB/s  ]

* - сиды/пиры с внешних источников

   
 
Автор Сообщение

older Пол:Муж

15-Сен-2015 08:19

Тайны и ложь / Secrets and Lies / Сезон 1


Год выпуска: 2015
Жанр: драма, детектив, триллер, криминал
Страна: США
Режиссер: Тимоти Басфилд, Кейт Дэннис, Адам Аркин
В ролях: Райан Филипп, Джульетт Льюис, КаДи Стрикленд, Дэн Фоглер, Натали Мартинес, Индиана Эванс, Белль Шусе, Роберт Фортунато
Сюжет фильма:
После того, как Бен Кроуфорд нашел тело соседского мальчика в лесу, его начинают подозревать в убийстве. Детектив Андреа Корнелл пытается докопаться до истины. Все тайны и ложь городка, где произошел инцидент, всплывут на поверхность, а жизнь семьи Бена будет перевернута вверх дном…

Качество видео: HDTVRip

Продолжительность: ~ 00:42:00
Формат: AVI
Видео: XviD, 720х400, 1496 kbps
Аудио: русский, многоголосый закадровый [профессиональный], MP3 2.0, 128 kbps - RG Paravozik (по субтитрам Sub Nomine)
01. Тропа (The Trail)
02. Отец (The Father)
03. Любовная связь (The Affair)
04. Сестра (The Sister)
05. Куртка (The Jacket)
06. Исповедь (The Confession)
07. Полицейский (The Cop)
08. Сын (The Son)
09. Мать (The Mother)
10. Ложь (The Lie)

Код:

Общее
Полное имя                               : \Secrets and Lies\Secrets.and.Lies.us.S01E01.RG.Paravozik.avi
Формат                                   : AVI
Формат/Информация                        : Audio Video Interleave
Размер файла                             : 502 Мбайт
Продолжительность                        : 42 м.
Общий поток                              : 1633 Кбит/сек
Библиотека кодирования                   : VirtualDub build 32842/release

Видео
Идентификатор                            : 0
Формат                                   : MPEG-4 Visual
Профиль формата                          : Advanced Simple@L5
Параметр BVOP формата                    : 2
Параметр QPel формата                    : Нет
Параметр GMC формата                     : Без точки перехода
Параметр матрицы формата                 : Выборочная
Идентификатор кодека                     : XVID
Идентификатор кодека/Подсказка           : XviD
Продолжительность                        : 42 м.
Битрейт                                  : 1496 Кбит/сек
Ширина                                   : 720 пикселей
Высота                                   : 400 пикселей
Соотношение сторон                       : 16:9
Частота кадров                           : 23,976 кадра/сек
Цветовое пространство                    : YUV
Субдискретизация насыщенности            : 4:2:0
Битовая глубина                          : 8 бит
Тип развёртки                            : Прогрессивная
Метод сжатия                             : С потерями
Бит/(Пиксели*Кадры)                      : 0.217
Размер потока                            : 459 Мбайт (92%)
Библиотека кодирования                   : XviD 1.2.1 (UTC 2008-12-04)

Аудио
Идентификатор                            : 1
Формат                                   : MPEG Audio
Версия формата                           : Version 1
Профиль формата                          : Layer 3
Режим                                    : Joint stereo
Расширение режима                        : MS Stereo
Идентификатор кодека                     : 55
Идентификатор кодека/Подсказка           : MP3
Продолжительность                        : 42 м.
Вид битрейта                             : Постоянный
Битрейт                                  : 128 Кбит/сек
Каналы                                   : 2 канала
Частота                                  : 48,0 КГц
Метод сжатия                             : С потерями
Размер потока                            : 39,3 Мбайт (8%)
Выравнивание                             : Разделение по промежуткам
Продолжительность промежутка             : 42  мс. (1,00 видеокадр)
Время предзагрузки промежутка            : 500  мс.

Релиз группы:

picpicpicpicpic
Для увеличения картинки щелкните мышкой по превью

Этот торрент недоступен для скачивания без регистрации, однако доступен по публичной magnet-ссылке (источники с публичных трекеров). Перед использованием ссылки прочтите, пожалуйста Пользовательское соглашение, а также как можно дольше оставайтесь на раздаче! Для того, чтобы скачать сам торрент-файл (который видит больше источников), а также для того, чтобы поблагодарить релизера, вам необходимо зарегистрироваться. Если регистрироваться лень - вы можете также попробовать скачать релиз по нашим партнерским ссылкам ниже.

[underverse.su].t58243.torrent
Трекер: Зарегистрирован   [ 15.09.2015 08:19 ]  

Статус: проверено (by makkol at 15.09.2015 13:05)
Поблагодарили: пока никто не поблагодарил...
Тип торрента: публичный - доступные источники с открытых трекеров: 
Размер: 4,78 GB (занимает 1,09 DVDR, для записи нужно 2 болванки DVDR/RW)
 
 

Яндекс.Метрика powered by Sphinx


В Н И М А Н И Е
Сайт не распространяет и не хранит электронные версии произведений, а лишь бесплатно и без коммерческой выгоды (не требуя взамен платы,
SMS и т.д.) предоставляет доступ к создаваемому пользователями каталогу ссылок на торрент-файлы, которые содержат только списки хеш-сумм.
Убедительная просьба с жалобами обращаться напрямую к пользователю, разместившему торрент файл.

Вверх