Loading...
Error

Расследования Мердока / Murdoch Mysteries / Сезон 7 (1-18 серии из 18) (Харви Кросслэнд, Лори Линд, Дон МакКатчен) [2013 г., драма, криминал, детектив, HDTVRip] DVO

Статистика раздачи
Размер:  8,28 GB   |    Зарегистрирован:  1 год 2 месяца   |    Скачан:  3 раза

Полного источника не было: 5 месяцев 15 дней

Сидов:  0  |  0 KB/s  ]   Личеров:  0  |  0 KB/s  ]

* - сиды/пиры с внешних источников

   
 
Автор Сообщение

older Пол:Муж

15-Сен-2015 07:31

Расследования Мердока / Murdoch Mysteries / Сезон 7


Год выпуска: 2013
Жанр: драма, криминал, детектив
Страна: Канада , Великобритания
Режиссер: Харви Кросслэнд, Лори Линд, Дон МакКатчен
В ролях: Янник Биссон, Томас Крэйг, Джонни Харрис, Хелен Джо, Лаклан Мёрдок, Джорджина Рейли, Джонатан Уоттон, Арвен Хампрейс, Найджел Беннетт, Питер Стеббингс
Сюжет фильма:
Конец 19-го века. На улицах Торонто происходят странные убийства. Детектив Уильям Мердок раскрывает их с помощью новой науки — криминалистики. У него есть союзник — судебный врач Джейн Огден. Ни юный возраст, ни хорошее воспитание, ни пышные юбки не мешают ей вскрывать трупы и проводить экспертизы.

Качество видео: HDTVRip

Продолжительность: ~ 00:43:00
Формат: AVI
Видео: XviD, 720х400, 1295 kbps
Аудио: русский, двухголосый закадровый [любительский], MP3 2.0, 192 kbps - DreamRecords

Код:

Общее
Полное имя                               : \Расследование Мердока (7 сезон)\Murdoch.Mysteries.S07E01.400p.HDTVRip.XviD - [DreamRecords].avi
Формат                                   : AVI
Формат/Информация                        : Audio Video Interleave
Размер файла                             : 465 Мбайт
Продолжительность                        : 43 м.
Общий поток                              : 1496 Кбит/сек
Программа кодирования                    : VirtualDubModRus 1.5.10.2 (build 2542/release)
Библиотека кодирования                   : VirtualDubMod build 2542/release

Видео
Идентификатор                            : 0
Формат                                   : MPEG-4 Visual
Профиль формата                          : Advanced Simple@L5
Параметр BVOP формата                    : 1
Параметр QPel формата                    : Нет
Параметр GMC формата                     : Без точки перехода
Параметр матрицы формата                 : Default (MPEG)
Идентификатор кодека                     : XVID
Идентификатор кодека/Подсказка           : XviD
Продолжительность                        : 43 м.
Битрейт                                  : 1295 Кбит/сек
Ширина                                   : 720 пикселей
Высота                                   : 400 пикселей
Соотношение сторон                       : 16:9
Частота кадров                           : 23,976 кадра/сек
Цветовое пространство                    : YUV
Субдискретизация насыщенности            : 4:2:0
Битовая глубина                          : 8 бит
Тип развёртки                            : Прогрессивная
Метод сжатия                             : С потерями
Бит/(Пиксели*Кадры)                      : 0.188
Размер потока                            : 402 Мбайт (87%)
Библиотека кодирования                   : XviD 64

Аудио
Идентификатор                            : 1
Формат                                   : MPEG Audio
Версия формата                           : Version 1
Профиль формата                          : Layer 3
Идентификатор кодека                     : 55
Идентификатор кодека/Подсказка           : MP3
Продолжительность                        : 43 м.
Вид битрейта                             : Постоянный
Битрейт                                  : 192 Кбит/сек
Каналы                                   : 2 канала
Частота                                  : 48,0 КГц
Метод сжатия                             : С потерями
Размер потока                            : 59,6 Мбайт (13%)
Выравнивание                             : Соединение по промежуткам
Продолжительность промежутка             : 42  мс. (1,00 видеокадр)
Время предзагрузки промежутка            : 504  мс.

Озвучено: DreamRecords
Автор перевода: Ольга Литинская
Автор постера: Mystery
Автор рипа: Алексей Фокин
Текст читали: Владислав Данилов, Маргарита Ремейкайте
Монтаж и сведение звука: Алексей Фокин
Релиз группы:

picpicpicpicpic
Для увеличения картинки щелкните мышкой по превью

Этот торрент недоступен для скачивания без регистрации, однако доступен по публичной magnet-ссылке (источники с публичных трекеров). Перед использованием ссылки прочтите, пожалуйста Пользовательское соглашение, а также как можно дольше оставайтесь на раздаче! Для того, чтобы скачать сам торрент-файл (который видит больше источников), а также для того, чтобы поблагодарить релизера, вам необходимо зарегистрироваться. Если регистрироваться лень - вы можете также попробовать скачать релиз по нашим партнерским ссылкам ниже.

[underverse.su].t58241.torrent
Трекер: Зарегистрирован   [ 15.09.2015 07:31 ]  

Статус: проверено (by makkol at 15.09.2015 07:36)
Поблагодарили: пока никто не поблагодарил...
Тип торрента: публичный - доступные источники с открытых трекеров: 
Размер: 8,28 GB (занимает 1,89 DVDR, для записи нужно 2 болванки DVDR/RW)
 
 
Похожие темы
Форум Тема Автор Торрент Отв. Посл. сооб.
Зарубежные сериалы Расследования Мердока / Murdoch Mysteries / Сезон 1-3 / Серии 1-39 (39) (Лори Линд, Элинор Линдо, Келли Макин) [2008-2010 г., Драма, криминал, детектив, DVDRip] MVO Чертёнок
2 | 0

0 | 1202

5

25.02.2013 09:43

Зарубежные сериалы Расследования Мердока / Murdoch Mysteries / Сезон 4 / Серии 1-13 (13) (Харви Кросслэнд, Пол Фокс, Элинор Линдо ) [2012 г., Детектив, HDTVRip] DVO + MVO Чертёнок
1 | 0

0 | 1194

8

25.02.2013 10:12

Зарубежные сериалы Расследования Мердока / Murdoch Mysteries / Сезон 5 / Серии 1-13 (13) (Харви Кросслэнд, Пол Фокс, Элинор Линдо ) [2012 г., Детектив, HDTVRip] DVO Чертёнок
2 | 1

0 | 1055

4

25.02.2013 10:34

Зарубежные сериалы Расследования Мердока / Murdoch Mysteries / Сезон 6 (1-13 серии из 13) (Харви Кросслэнд, Лори Линд, Дон МакКатчен) [2013 г., драма, криминал, детектив, HDTVRip] DVO older
23 | 3

0 | 305

1

15.09.2015 07:05

T Зарубежные сериалы Расследования Мердока / Murdoch Mysteries / Сезон 8 (1-7 серии из 18) (Харви Кросслэнд, Лори Линд, Дон МакКатчен) [2014 г., драма, криминал, детектив, WEB-DLRip] DVO older
6 | 6

1 | 1365

2

16.11.2015 05:14


Яндекс.Метрика powered by Sphinx


В Н И М А Н И Е
Сайт не распространяет и не хранит электронные версии произведений, а лишь бесплатно и без коммерческой выгоды (не требуя взамен платы,
SMS и т.д.) предоставляет доступ к создаваемому пользователями каталогу ссылок на торрент-файлы, которые содержат только списки хеш-сумм.
Убедительная просьба с жалобами обращаться напрямую к пользователю, разместившему торрент файл.

Вверх