Loading...
Error

Пистолет за десять центов / 10 Cent Pistol (Майкл С. Мартин) [2014 г., триллер, криминал, WEB-DLRip] MVO

Статистика раздачи
Размер:  1,41 GB   |    Зарегистрирован:  1 год 2 месяца   |    Скачан:  27 раз

Полного источника не было: 3 месяца 15 дней

Сидов:  0  |  0 KB/s  ]   Личеров:  0  |  0 KB/s  ]

* - сиды/пиры с внешних источников

   
 
Автор Сообщение

makkol Пол:Муж

14-Сен-2015 11:17

Пистолет за десять центов / 10 Cent Pistol


Год выпуска: 2014
Жанр: триллер, криминал
Производство: США [Route 17 Entertainment]
Режиссер: Майкл С. Мартин
В ролях: Джена Мэлоун, Джей Ти Александр, Дэймон Александр, Джо Мантенья, Адам Аркин, Брендан Секстон III, Томас Иэн Николас, Джессика Зор, Эмилио Ривера, Амир Талай
Сюжет фильма:
Два гангстера, совершают ограбление, где оставили после себя много трупов, однако взяли несколько миллионов долларов. "На уши" была поднята вся полиция... После отсидки один из них решает взять свою долю. Но в доме случайно срабатывает сигнализация и приезжают стражи порядка. Теперь весь их идеальный план рушится на глазах и нужно импровизировать, чтоб выбраться из этой передряги...

  • Мировая премьера: 25 апреля 2014


Качество видео: WEB-DLRip

Продолжительность: 01:30:58
Формат: AVI
Видео: DivX, 656x272 (2.40:1), 23.976 fps, 2019 kbps
Аудио: русский, любительский многоголосый закадровый (Qwerty), AC3 2.0, 44.1 kHz, 192 kbps

Код:

Общее
Полное имя                               : Pisiolet.Za.Desyat.Centov.avi
Формат                                   : AVI
Формат/Информация                        : Audio Video Interleave
Размер файла                             : 1,41 Гбайт
Продолжительность                        : 1 ч. 30 м.
Общий поток                              : 2220 Кбит/сек
Программа кодирования                    : VirtualDubMod 1.5.10.2 (build 2540/release)
Библиотека кодирования                   : VirtualDubMod build 2540/release

Видео
Идентификатор                            : 0
Формат                                   : MPEG-4 Visual
Профиль формата                          : Simple@L1
Параметр BVOP формата                    : Нет
Параметр QPel формата                    : Нет
Параметр GMC формата                     : Без точки перехода
Параметр матрицы формата                 : Default (H.263)
Идентификатор кодека                     : DX50
Идентификатор кодека/Подсказка           : DivX 5
Продолжительность                        : 1 ч. 30 м.
Битрейт                                  : 2019 Кбит/сек
Ширина                                   : 656 пикселей
Высота                                   : 272 пикселя
Соотношение сторон                       : 2,40:1
Частота кадров                           : 23,976 кадра/сек
Цветовое пространство                    : YUV
Субдискретизация насыщенности            : 4:2:0
Битовая глубина                          : 8 бит
Тип развёртки                            : Прогрессивная
Метод сжатия                             : С потерями
Бит/(Пиксели*Кадры)                      : 0.472
Размер потока                            : 1,28 Гбайт (91%)
Библиотека кодирования                   : Lavc51.40.4

Аудио
Идентификатор                            : 1
Формат                                   : AC-3
Формат/Информация                        : Audio Coding 3
Расширение режима                        : CM (complete main)
Параметр Endianness формата              : Big
Идентификатор кодека                     : 2000
Продолжительность                        : 1 ч. 30 м.
Вид битрейта                             : Постоянный
Битрейт                                  : 192 Кбит/сек
Каналы                                   : 2 канала
Расположение каналов                     : Front: L R
Частота                                  : 44,1 КГц
Битовая глубина                          : 16 бит
Метод сжатия                             : С потерями
Размер потока                            : 125 Мбайт (9%)
Выравнивание                             : Разделение по промежуткам
Продолжительность промежутка             : 42  мс. (1,00 видеокадр)
Время предзагрузки промежутка            : 500  мс.
Заголовок                                : Русская_Релиз-группа Qwerty
picpicpicpicpic
Для увеличения картинки щелкните мышкой по превью

Этот торрент недоступен для скачивания без регистрации, однако доступен по публичной magnet-ссылке (источники с публичных трекеров). Перед использованием ссылки прочтите, пожалуйста Пользовательское соглашение, а также как можно дольше оставайтесь на раздаче! Для того, чтобы скачать сам торрент-файл (который видит больше источников), а также для того, чтобы поблагодарить релизера, вам необходимо зарегистрироваться. Если регистрироваться лень - вы можете также попробовать скачать релиз по нашим партнерским ссылкам ниже.

[underverse.su].t58204.torrent
Трекер: Зарегистрирован   [ 14.09.2015 11:17 ]  

Статус: проверено (by makkol at 16.09.2015 10:41)
Поблагодарили: 1 человек
Тип торрента: публичный - доступные источники с открытых трекеров: 
Размер: 1,41 GB (занимает 0,32 DVDR, для записи нужно 1 болванка DVDR/RW)
 
 

Яндекс.Метрика powered by Sphinx


В Н И М А Н И Е
Сайт не распространяет и не хранит электронные версии произведений, а лишь бесплатно и без коммерческой выгоды (не требуя взамен платы,
SMS и т.д.) предоставляет доступ к создаваемому пользователями каталогу ссылок на торрент-файлы, которые содержат только списки хеш-сумм.
Убедительная просьба с жалобами обращаться напрямую к пользователю, разместившему торрент файл.

Вверх