Loading...
Error

Артур и Джордж / Arthur & George / Сезон 1 (1-3 серии из 3) (Стюарт Орм) [2015 г., драма, криминал, детектив, биография, HDTVRip] DVO

Статистика раздачи
Размер:  1,64 GB   |    Зарегистрирован:  1 год 4 месяца   |    Скачан:  2 раза

Полного источника не было: 10 месяцев

Сидов:  0  |  0 KB/s  ]   Личеров:  0  |  0 KB/s  ]

* - сиды/пиры с внешних источников

   
 
Автор Сообщение

older Пол:Муж

14-Сен-2015 08:18

Артур и Джордж / Arthur & George / Сезон 1


Год выпуска: 2015
Жанр: драма, криминал, детектив, биография
Страна: Великобритания
Режиссер: Стюарт Орм
В ролях: Мартин Клунес, Аршер Али, Чарльз Эдвардс, Арт Малик, Хэтти Морахэн, Эмма Филдинг, Алан МакКенна, Конлет Хилл, Перл Чанда, Хилари Маклин
Сюжет фильма:
Сэр Артур Конан Дойль, уже всемирно известный автор новелл о Шерлоке Холмсе, решает последовать примеру своего персонажа и расследовать преступление, в котором, по его мнению, был обвинен невиновный.

Качество видео: HDTVRip

Продолжительность: ~ 00:45:00
Формат: AVI
Видео: XviD, 720х400, 1497 kbps
Аудио: русский, двухголосый закадровый [профессиональный], AC3 2.0, 192 kbps - Victory-Films

Код:

Общее
Полное имя                               : \Arthur & George s01 2015 HDTVRip\Episode 01.avi
Формат                                   : AVI
Формат/Информация                        : Audio Video Interleave
Размер файла                             : 555 Мбайт
Продолжительность                        : 45 м.
Общий поток                              : 1699 Кбит/сек
Библиотека кодирования                   : VirtualDub build 35503/release

Видео
Идентификатор                            : 0
Формат                                   : MPEG-4 Visual
Профиль формата                          : Advanced Simple@L5
Параметр BVOP формата                    : 2
Параметр QPel формата                    : Нет
Параметр GMC формата                     : Без точки перехода
Параметр матрицы формата                 : Default (H.263)
Режим смешивания                         : Сжатый битовый поток
Идентификатор кодека                     : XVID
Идентификатор кодека/Подсказка           : XviD
Продолжительность                        : 45 м.
Битрейт                                  : 1497 Кбит/сек
Ширина                                   : 720 пикселей
Высота                                   : 400 пикселей
Соотношение сторон                       : 16:9
Частота кадров                           : 25,000 кадров/сек
Цветовое пространство                    : YUV
Субдискретизация насыщенности            : 4:2:0
Битовая глубина                          : 8 бит
Тип развёртки                            : Прогрессивная
Метод сжатия                             : С потерями
Бит/(Пиксели*Кадры)                      : 0.208
Размер потока                            : 489 Мбайт (88%)
Библиотека кодирования                   : XviD 66

Аудио
Идентификатор                            : 1
Формат                                   : AC-3
Формат/Информация                        : Audio Coding 3
Расширение режима                        : CM (complete main)
Параметр Endianness формата              : Big
Идентификатор кодека                     : 2000
Продолжительность                        : 45 м.
Вид битрейта                             : Постоянный
Битрейт                                  : 192 Кбит/сек
Каналы                                   : 2 канала
Расположение каналов                     : Front: L R
Частота                                  : 48,0 КГц
Битовая глубина                          : 16 бит
Метод сжатия                             : С потерями
Размер потока                            : 62,7 Мбайт (11%)
Выравнивание                             : Соединение по промежуткам
Продолжительность промежутка             : 40  мс. (1,00 видеокадр)
Время предзагрузки промежутка            : 512  мс.

Релиз группы:

picpicpicpicpic
Для увеличения картинки щелкните мышкой по превью

Этот торрент недоступен для скачивания без регистрации, однако доступен по публичной magnet-ссылке (источники с публичных трекеров). Перед использованием ссылки прочтите, пожалуйста Пользовательское соглашение, а также как можно дольше оставайтесь на раздаче! Для того, чтобы скачать сам торрент-файл (который видит больше источников), а также для того, чтобы поблагодарить релизера, вам необходимо зарегистрироваться. Если регистрироваться лень - вы можете также попробовать скачать релиз по нашим партнерским ссылкам ниже.

[underverse.su].t58183.torrent
Трекер: Зарегистрирован   [ 14.09.2015 08:18 ]  

Статус: проверено (by makkol at 14.09.2015 10:39)
Поблагодарили: пока никто не поблагодарил...
Тип торрента: публичный - доступные источники с открытых трекеров: 
Размер: 1,64 GB (занимает 0,38 DVDR, для записи нужно 1 болванка DVDR/RW)
 
 

Яндекс.Метрика powered by Sphinx


В Н И М А Н И Е
Сайт не распространяет и не хранит электронные версии произведений, а лишь бесплатно и без коммерческой выгоды (не требуя взамен платы,
SMS и т.д.) предоставляет доступ к создаваемому пользователями каталогу ссылок на торрент-файлы, которые содержат только списки хеш-сумм.
Убедительная просьба с жалобами обращаться напрямую к пользователю, разместившему торрент файл.

Вверх