Loading...
Error

Укушенная / Bitten / Сезон 2 (1-10 серии из 10) (Джеймс Даннисон, Грант Харви, Т.Дж. Скотт) [2015 г., ужасы, фэнтези, драма, детектив, WEB-DLRip] MVO (LostFilm)

Статистика раздачи
Размер:  3,66 GB   |    Зарегистрирован:  1 год 2 месяца   |    Скачан:  5 раз

Полного источника не было: 1 час 53 минуты

Сидов:  0  |  0 KB/s  ]   Личеров:  0  |  0 KB/s  ]

* - сиды/пиры с внешних источников

   
 
Автор Сообщение

older Пол:Муж

14-Сен-2015 07:13

Укушенная / Bitten / Сезон 2


Год выпуска: 2015
Жанр: ужасы, фэнтези, драма, детектив
Страна: Канада
Режиссер: Джеймс Даннисон, Грант Харви, Т.Дж. Скотт
В ролях: Лора Вандервурт, Грейстон Холт, Грег Брайк, Пол Грин, Стив Ланд, Майкл Ксавьер, Дженелл Уильямс, Натали Браун, Майкл Лакетт, Фиона Хайет
Сюжет фильма:
История об Елене, единственной в мире женщины-оборотня, которая никогда не хотела становиться частью тайного мира оборотней, мира, который не только принимает худшее в ее характере, но и требует этого. Устав от жизни в постоянной борьбе и насилии, от жизни где ее наиболее важной задачей является охота на диких оборотней, она оставляет город и свою стаю, чтобы вернуться в Торонто и постараться жить как обычный человек. Елена считала, что оставила мир сверхъестественного позади. Несмотря на своё проклятье она пытается вести обычный образ жизни, ходит на работу, гуляет с друзьями, заводит парней и прочее. Свою тайну она конечно же тщательно скрывает, ведь узнай это окружающие люди все может плохо кончиться. За всеми оборотнями следит одна влиятельная, организованная семья, проживающая в поместье Стоунхэйвен ─ месте, где началась жизнь Елены как оборотня. Но оборотень не может быть одиночкой, он всегда является частью стаи. Члены стаи живут по всему миру, но теперь вожак собрал их в американском городке Стоун Хэвене. Дело в том, что недалеко от Медвежьей долины, где находится логово стаи, найдено мёртвое тело убитой женщины, которую загрыз оборотень из вражеской стаи псов. Волки планируют Большую Охоту, а Елена числится среди них как один из самых лучших охотников. И однажды ночью она получила таинственный звонок от главы клана, и ее собеседник попросил, чтобы она вернулась. Теперь она знает, что ей придется оставить уже ставшую привычной жизнь фотографа в Торонто. Отныне героине предстоит вновь войти в мир оборотней, несмотря на то, что она провела годы, пытаясь вырваться из него.

Качество видео: WEB-DLRip

Продолжительность: ~ 00:44:00
Формат: AVI
Видео: XviD, 720х400, 1079 kbps
Аудио: русский, многоголосый закадровый [профессиональный], MP3 2.0, 192 kbps

Код:

Общее
Полное имя                               : \Укушенная (сезон 2) Bitten (2015) WEB-DLRip - LostFilm\Bitten.S02E01.rus.LostFilm.TV.avi
Формат                                   : AVI
Формат/Информация                        : Audio Video Interleave
Размер файла                             : 407 Мбайт
Продолжительность                        : 44 м.
Режим общего битрейта                    : Переменный
Общий поток                              : 1280 Кбит/сек
Программа кодирования                    : Nandub v1.0rc2
Библиотека кодирования                   : Nandub build 1853/release

Видео
Идентификатор                            : 0
Формат                                   : MPEG-4 Visual
Профиль формата                          : Advanced Simple@L5
Параметр BVOP формата                    : Нет
Параметр QPel формата                    : Нет
Параметр GMC формата                     : Без точки перехода
Параметр матрицы формата                 : Default (H.263)
Идентификатор кодека                     : XVID
Идентификатор кодека/Подсказка           : XviD
Продолжительность                        : 44 м.
Битрейт                                  : 1079 Кбит/сек
Ширина                                   : 720 пикселей
Высота                                   : 400 пикселей
Соотношение сторон                       : 16:9
Частота кадров                           : 23,976 кадра/сек
Цветовое пространство                    : YUV
Субдискретизация насыщенности            : 4:2:0
Битовая глубина                          : 8 бит
Тип развёртки                            : Прогрессивная
Метод сжатия                             : С потерями
Бит/(Пиксели*Кадры)                      : 0.156
Размер потока                            : 343 Мбайт (84%)
Библиотека кодирования                   : XviD 1.2.1 (UTC 2008-12-04)

Аудио
Идентификатор                            : 1
Формат                                   : MPEG Audio
Версия формата                           : Version 1
Профиль формата                          : Layer 3
Режим                                    : Joint stereo
Расширение режима                        : MS Stereo
Идентификатор кодека                     : 55
Идентификатор кодека/Подсказка           : MP3
Продолжительность                        : 44 м.
Вид битрейта                             : Переменный
Битрейт                                  : 192 Кбит/сек
Каналы                                   : 2 канала
Частота                                  : 48,0 КГц
Метод сжатия                             : С потерями
Размер потока                            : 59,9 Мбайт (15%)
Выравнивание                             : Соединение по промежуткам
Продолжительность промежутка             : 24  мс. (0,58 видеокадр)
Время предзагрузки промежутка            : 484  мс.
Библиотека кодирования                   : LAME3.97b
Настройки программы                      : -m j -V 4 -q 3 -lowpass 18.6 --abr 192

Релиз группы:

picpicpicpicpic
Для увеличения картинки щелкните мышкой по превью

Этот торрент недоступен для скачивания без регистрации, однако доступен по публичной magnet-ссылке (источники с публичных трекеров). Перед использованием ссылки прочтите, пожалуйста Пользовательское соглашение, а также как можно дольше оставайтесь на раздаче! Для того, чтобы скачать сам торрент-файл (который видит больше источников), а также для того, чтобы поблагодарить релизера, вам необходимо зарегистрироваться. Если регистрироваться лень - вы можете также попробовать скачать релиз по нашим партнерским ссылкам ниже.

[underverse.su].t58178.torrent
Трекер: Зарегистрирован   [ 14.09.2015 07:13 ]  

Статус: проверено (by makkol at 14.09.2015 10:36)
Поблагодарили: пока никто не поблагодарил...
Тип торрента: публичный - доступные источники с открытых трекеров: 
Размер: 3,66 GB (занимает 0,84 DVDR, для записи нужно 1 болванка DVDR/RW)
 
 
Похожие темы
Форум Тема Автор Торрент Отв. Посл. сооб.
Зарубежные сериалы Укушенная / Bitten (Брэд Тернер, Джеймс Даннисон, Пол Фокс) [2014 г., ужасы, фэнтези, драма, детектив, WEB-DLRip-AVC] MVO (BaibaKo) Jimmy
1 | 0

0 | 1030

3

10.04.2014 17:31

Зарубежные сериалы Укушенная / Bitten / Сезон 1-3 (1-33 из 33) (Джеймс Даннисон, Грант Харви, Т.Дж. Скотт) [2014-2016 г., ужасы, фэнтези, драма, детектив, WEB-DLRip-AVC] MVO (BaibaKo) + MVO (LostFilm) + Original Dryn9
4 | 2

0 | 923

1

04.05.2016 07:12


Яндекс.Метрика powered by Sphinx


В Н И М А Н И Е
Сайт не распространяет и не хранит электронные версии произведений, а лишь бесплатно и без коммерческой выгоды (не требуя взамен платы,
SMS и т.д.) предоставляет доступ к создаваемому пользователями каталогу ссылок на торрент-файлы, которые содержат только списки хеш-сумм.
Убедительная просьба с жалобами обращаться напрямую к пользователю, разместившему торрент файл.

Вверх