Loading...
Error

Последний человек на Земле / The Last Man on Earth / Сезон 1 (1-13 серии из 13) (Джон Соломон, Фил Лорд, Кристофер Миллер) [2015 г., комедия, WEB-DLRip] DVO + Original

Статистика раздачи
Размер:  5,74 GB   |    Зарегистрирован:  1 год 2 месяца   |    Скачан:  14 раз

Полного источника не было: 25 дней

Сидов:  0  |  0 KB/s  ]   Личеров:  0  |  0 KB/s  ]

* - сиды/пиры с внешних источников

   
 
Автор Сообщение

older Пол:Муж

14-Сен-2015 06:55

Последний человек на Земле / The Last Man on Earth / Сезон 1


Год выпуска: 2015
Жанр: комедия
Страна: США
Режиссер: Джон Соломон, Фил Лорд, Кристофер Миллер
В ролях: Уилл Форте, Кристен Шол, Александра Даддарио, Клеопатра Коулман, Дженьюэри Джонс, Мэл Родригез
Сюжет фильма:
Фил Миллер когда-то был просто обычным парнем, который любил свою семью и ненавидел свою работу в банке — теперь он последняя надежда человечества. Найдет ли он когда-нибудь другого живого человека на планете?

Качество видео: WEB-DLRip

Продолжительность: ~ 00:22:00
Формат: AVI
Видео: XviD, 720х400, 1963 kbps
Аудио #1: русский, двухголосый закадровый [профессиональный], AC3 5.1, 384 kbps - Кубик в Кубе
Аудио #2: английский, оригинал, AC3 5.1, 384 kbps

Код:

Общее
Полное имя                               : \The Last Man on Earth Season 1 CasStudio.TV\The.Last.Man.on.Earth.S01E01-02.WEB-DLRip.DUAL.CasStudio.TV.avi
Формат                                   : AVI
Формат/Информация                        : Audio Video Interleave
Размер файла                             : 858 Мбайт
Продолжительность                        : 43 м.
Общий поток                              : 2745 Кбит/сек
Программа кодирования                    : VirtualDubMod 1.5.10.3 | www.virtualdub-fr.org || (build 2550/release)
Библиотека кодирования                   : VirtualDubMod build 2550/release

Видео
Идентификатор                            : 0
Формат                                   : MPEG-4 Visual
Профиль формата                          : Advanced Simple@L5
Параметр BVOP формата                    : 1
Параметр QPel формата                    : Нет
Параметр GMC формата                     : Без точки перехода
Параметр матрицы формата                 : Default (MPEG)
Идентификатор кодека                     : XVID
Идентификатор кодека/Подсказка           : XviD
Продолжительность                        : 43 м.
Битрейт                                  : 1963 Кбит/сек
Ширина                                   : 720 пикселей
Высота                                   : 400 пикселей
Соотношение сторон                       : 16:9
Частота кадров                           : 23,976 кадра/сек
Цветовое пространство                    : YUV
Субдискретизация насыщенности            : 4:2:0
Битовая глубина                          : 8 бит
Тип развёртки                            : Прогрессивная
Метод сжатия                             : С потерями
Бит/(Пиксели*Кадры)                      : 0.284
Размер потока                            : 614 Мбайт (72%)
Библиотека кодирования                   : XviD 65

Аудио #1
Идентификатор                            : 1
Формат                                   : AC-3
Формат/Информация                        : Audio Coding 3
Расширение режима                        : CM (complete main)
Параметр Endianness формата              : Big
Идентификатор кодека                     : 2000
Продолжительность                        : 43 м.
Вид битрейта                             : Постоянный
Битрейт                                  : 384 Кбит/сек
Каналы                                   : 6 каналов
Расположение каналов                     : Front: L C R, Side: L R, LFE
Частота                                  : 48,0 КГц
Битовая глубина                          : 16 бит
Метод сжатия                             : С потерями
Задержка видео                           : 10 мс.
Размер потока                            : 120 Мбайт (14%)
Выравнивание                             : Разделение по промежуткам
Продолжительность промежутка             : 42  мс. (1,00 видеокадр)
Время предзагрузки промежутка            : 500  мс.

Аудио #2
Идентификатор                            : 2
Формат                                   : AC-3
Формат/Информация                        : Audio Coding 3
Расширение режима                        : CM (complete main)
Параметр Endianness формата              : Big
Идентификатор кодека                     : 2000
Продолжительность                        : 43 м.
Вид битрейта                             : Постоянный
Битрейт                                  : 384 Кбит/сек
Каналы                                   : 6 каналов
Расположение каналов                     : Front: L C R, Side: L R, LFE
Частота                                  : 48,0 КГц
Битовая глубина                          : 16 бит
Метод сжатия                             : С потерями
Задержка видео                           : 10 мс.
Размер потока                            : 120 Мбайт (14%)
Выравнивание                             : Разделение по промежуткам
Продолжительность промежутка             : 42  мс. (1,00 видеокадр)
Время предзагрузки промежутка            : 500  мс.

Релиз группы:

picpicpicpicpic
Для увеличения картинки щелкните мышкой по превью

Этот торрент недоступен для скачивания без регистрации, однако доступен по публичной magnet-ссылке (источники с публичных трекеров). Перед использованием ссылки прочтите, пожалуйста Пользовательское соглашение, а также как можно дольше оставайтесь на раздаче! Для того, чтобы скачать сам торрент-файл (который видит больше источников), а также для того, чтобы поблагодарить релизера, вам необходимо зарегистрироваться. Если регистрироваться лень - вы можете также попробовать скачать релиз по нашим партнерским ссылкам ниже.

[underverse.su].t58176.torrent
Трекер: Зарегистрирован   [ 14.09.2015 06:55 ]  

Статус: проверено (by makkol at 14.09.2015 16:04)
Поблагодарили: 1 человек
Тип торрента: публичный - доступные источники с открытых трекеров: 
Размер: 5,74 GB (занимает 1,31 DVDR, для записи нужно 2 болванки DVDR/RW)
 
 
Похожие темы
Форум Тема Автор Торрент Отв. Посл. сооб.
Зарубежное кино [DVDRip, Low-Res HDRip, и т.д.] Последний король Шотландии / The Last King of Scotland (Кевин МакДональд) [2006 г., драма, исторический, DVDRip] km170682tvv
0 | 0

1 | 1421

14

22.07.2009 08:58

Зарубежное кино [DVDRip, Low-Res HDRip, и т.д.] Последний император / The Last Emperor (Бернардо Бертолуччи) [1987 г., биография, исторический, драма, DVDRip] km170682tvv
0 | 0

1 | 1453

3

30.07.2009 17:47

Зарубежное кино [DVDRip, Low-Res HDRip, и т.д.] Последний самурай / The Last Samurai (Эдвард Цвик) [2003 г., боевик, драма, приключения, военный, BDRip] Dub + Sub (Rus) NMZ
22 | 0

6 | 2720

15

18.11.2013 14:39

Зарубежное кино [DVDRip, Low-Res HDRip, и т.д.] Последний дракон: В поисках магической жемчужины / The Dragon Pearl (Марио Андриччион) [2011 г., детектив, приключения, семейный, DVDRip] LAMA
0 | 0

0 | 889

5

19.07.2011 09:25

Зарубежное кино [DVDRip, Low-Res HDRip, и т.д.] Последний охотник на ведьм / The Last Witch Hunter (Брек Эйснер / Breck Eisner) [2015 г., фэнтези, боевик, приключения, BDRip] Dub + Original (Eng) 90ytr90
138 | 4

0 | 262

12

17.11.2016 11:18

Зарубежное кино [DVDRip, Low-Res HDRip, и т.д.] Последний в обойме / One in the Gun (Рольф Канефски) [2010 г., триллер, DVDRip] DVO DarkAngel
4 | 0

1 | 783

29

12.01.2016 19:52

Зарубежное кино [DVDRip, Low-Res HDRip, и т.д.] Последний час Земли / Earth's Final Hours (Дэвид Хоган) [2011 г., фантастика, HDRip] MVO 90ytr90
3 | 0

1 | 1305

41

12.12.2012 18:01

T Зарубежное кино [DVDRip, Low-Res HDRip, и т.д.] Последний звездолёт / The Last Starship (Свен Кнюппель) [2016 г., фантастика, DVDRip] MVO (Синема УС) 90ytr90
516 | 30

0 | 504

22

13.11.2016 16:25

Зарубежное кино [DVDRip, Low-Res HDRip, и т.д.] Последний дом слева / The Last House on the Left [Unrated] (Дэннис Илиадис) [2009 г., ужасы, триллер, драма, BDRip] Dub + Original garry
0 | 1

0 | 622

13

20.12.2012 22:28

Зарубежное кино [DVDRip, Low-Res HDRip, и т.д.] Последний магнат / Da Shang Hai (Цзин Вон) [2012 г., драма, мелодрама, приключения, военный, HDRip] DVO 90ytr90
3 | 0

0 | 1125

25

16.03.2013 18:20


Яндекс.Метрика powered by Sphinx


В Н И М А Н И Е
Сайт не распространяет и не хранит электронные версии произведений, а лишь бесплатно и без коммерческой выгоды (не требуя взамен платы,
SMS и т.д.) предоставляет доступ к создаваемому пользователями каталогу ссылок на торрент-файлы, которые содержат только списки хеш-сумм.
Убедительная просьба с жалобами обращаться напрямую к пользователю, разместившему торрент файл.

Вверх