Loading...
Error

Осторожно! Дети играют / Дети каннибалы / Beware! Children at Play (Мик Криббен) [1989 г., ужасы, триллер, DVDRip] VO + Original

Статистика раздачи
Размер:  1,46 GB   |    Зарегистрирован:  1 год 2 месяца   |    Скачан:  5 раз
Сидов:  1  |  0 KB/s  ]   Личеров:  0  |  0 KB/s  ]

* - сиды/пиры с внешних источников

   
 
Автор Сообщение

makkol Пол:Муж

13-Сен-2015 14:19

Осторожно! Дети играют / Дети каннибалы / Beware! Children at Play
«Они не дети... Они демоны!»


Год выпуска: 1989
Жанр: ужасы, триллер
Производство: США [Troma]
Режиссер: Мик Криббен
В ролях: Майкл Робертсон, Рич Хэмилтон, Робин Лилли, Лори Тиргрэт, Джеми Краузе, Саншайн Барретт, Марк Дикман
Сюжет фильма:
Детство ассоциируется у нас с умилительными прыжками через скакалку и игрой в классики. Однако в маленьком заброшенном американском городке это слово стало обозначать гарантированную резню с последующим пожиранием сырого мяса! Во время посещения Тромавилля семья Девольф открывает ужасную тайну. Кошмар охватывает родителей, когда их дети загадочно исчезают. Однако бывает ужас ещё больший, чем пропажа собственных детей! Соблазненные каннибальским культом, невинные голубоглазые создания превращаются в бессознательные машины убийства. Великолепно тошнотворное произведение из крови и мяса зальёт весь экран. Финальная батальная сцена – золотой фонд «Тромы», непревзойденный образец стиля!

Качество видео: DVDRip

Продолжительность: 01:34:00
Формат: AVI
Видео: XviD, 640x480 (4:3), 23.976 fps, 1924 kbps
Аудио #1: английский, оригинал, MP3 2.0, 48 kHz, 128 kbps
Аудио #2: русский, любительский одноголосый закадровый, MP3 2.0, 48 kHz, 123 kbps

Код:

Общее
Полное имя                               : Beware! Children at Play.avi
Формат                                   : AVI
Формат/Информация                        : Audio Video Interleave
Размер файла                             : 1,46 Гбайт
Продолжительность                        : 1 ч. 34 м.
Режим общего битрейта                    : Переменный
Общий поток                              : 2198 Кбит/сек
Программа кодирования                    : VirtualDubMod 1.5.4.1 (build 2178/release)
Библиотека кодирования                   : VirtualDubMod build 2178/release

Видео
Идентификатор                            : 0
Формат                                   : MPEG-4 Visual
Профиль формата                          : Advanced Simple@L5
Параметр BVOP формата                    : 1
Параметр QPel формата                    : Нет
Параметр GMC формата                     : Без точки перехода
Параметр матрицы формата                 : Выборочная
Идентификатор кодека                     : XVID
Идентификатор кодека/Подсказка           : XviD
Продолжительность                        : 1 ч. 34 м.
Битрейт                                  : 1924 Кбит/сек
Ширина                                   : 640 пикселей
Высота                                   : 480 пикселей
Соотношение сторон                       : 4:3
Частота кадров                           : 23,976 кадра/сек
Цветовое пространство                    : YUV
Субдискретизация насыщенности            : 4:2:0
Битовая глубина                          : 8 бит
Тип развёртки                            : Прогрессивная
Метод сжатия                             : С потерями
Бит/(Пиксели*Кадры)                      : 0.261
Размер потока                            : 1,28 Гбайт (88%)
Библиотека кодирования                   : XviD 1.2.0.dev47 (UTC 2006-11-01)

Аудио #1
Идентификатор                            : 1
Формат                                   : MPEG Audio
Версия формата                           : Version 1
Профиль формата                          : Layer 3
Режим                                    : Joint stereo
Расширение режима                        : MS Stereo
Идентификатор кодека                     : 55
Идентификатор кодека/Подсказка           : MP3
Продолжительность                        : 1 ч. 34 м.
Вид битрейта                             : Переменный
Битрейт                                  : 128 Кбит/сек
Каналы                                   : 2 канала
Частота                                  : 48,0 КГц
Метод сжатия                             : С потерями
Размер потока                            : 88,6 Мбайт (6%)
Выравнивание                             : Соединение по промежуткам
Продолжительность промежутка             : 24  мс. (0,58 видеокадр)
Время предзагрузки промежутка            : 588  мс.
Язык                                     : English

Аудио #2
Идентификатор                            : 2
Формат                                   : MPEG Audio
Версия формата                           : Version 1
Профиль формата                          : Layer 3
Режим                                    : Joint stereo
Расширение режима                        : MS Stereo
Идентификатор кодека                     : 55
Идентификатор кодека/Подсказка           : MP3
Продолжительность                        : 1 ч. 34 м.
Вид битрейта                             : Переменный
Битрейт                                  : 123 Кбит/сек
Каналы                                   : 2 канала
Частота                                  : 48,0 КГц
Метод сжатия                             : С потерями
Размер потока                            : 83,6 Мбайт (6%)
Выравнивание                             : Соединение по промежуткам
Продолжительность промежутка             : 24  мс. (0,58 видеокадр)
Время предзагрузки промежутка            : 520  мс.
Язык                                     : Russian
picpicpicpicpic
Для увеличения картинки щелкните мышкой по превью

Этот торрент недоступен для скачивания без регистрации, однако доступен по публичной magnet-ссылке (источники с публичных трекеров). Перед использованием ссылки прочтите, пожалуйста Пользовательское соглашение, а также как можно дольше оставайтесь на раздаче! Для того, чтобы скачать сам торрент-файл (который видит больше источников), а также для того, чтобы поблагодарить релизера, вам необходимо зарегистрироваться. Если регистрироваться лень - вы можете также попробовать скачать релиз по нашим партнерским ссылкам ниже.

[underverse.su].t58167.torrent
Трекер: Зарегистрирован   [ 13.09.2015 14:19 ]  

Статус: проверено (by makkol at 16.09.2015 10:31)
Поблагодарили: 1 человек
Тип торрента: публичный - доступные источники с открытых трекеров: 
Размер: 1,46 GB (занимает 1/3 DVDR, для записи нужно 1 болванка DVDR/RW)
 
 
Похожие темы
Форум Тема Автор Торрент Отв. Посл. сооб.
Наше кино [DVDRip, Low-Res HDRip, и т.д.] Осторожно! Красная ртуть! / Обережно! Червона ртуть! (Анатолий Иванов) [1995 г., детектив, TVRip] unforg_kin
0 | 0

3 | 2747

5

24.04.2010 15:19

* Архив Осторожно! Дети! ( Станислав Лебедев.) [2008 г., Комедия, детский., DVDRip] lexap

4 | 2194

29.08.2010 23:52


Яндекс.Метрика powered by Sphinx


В Н И М А Н И Е
Сайт не распространяет и не хранит электронные версии произведений, а лишь бесплатно и без коммерческой выгоды (не требуя взамен платы,
SMS и т.д.) предоставляет доступ к создаваемому пользователями каталогу ссылок на торрент-файлы, которые содержат только списки хеш-сумм.
Убедительная просьба с жалобами обращаться напрямую к пользователю, разместившему торрент файл.

Вверх