Loading...
Error

Горничная / Housekeeping (Дженнифер Хэррингтон) [2013 г., триллер, HDRip] DVO

Статистика раздачи
Размер:  1,34 GB   |    Зарегистрирован:  1 год 2 месяца   |    Скачан:  10 раз

Полного источника не было: 3 месяца 15 дней

Сидов:  0  |  0 KB/s  ]   Личеров:  0  |  0 KB/s  ]

* - сиды/пиры с внешних источников

   
 
Автор Сообщение

makkol Пол:Муж

13-Сен-2015 11:27

Горничная / Housekeeping


Год выпуска: 2013
Жанр: триллер
Страна: США
Режиссер: Дженнифер Хэррингтон
В ролях: Адриана Солис, Блэр Вуйчик. Карлос Фоглиа, Петер Шлехтер, Дженнифер Акана Штурла, Эрик Госселин, Джесски Джосселин, Анжелик Хик, Джон Линигстон
Сюжет фильма:
Даже со всеми своими дипломами, степенями и знаниями латиноамериканская девушка Люси сумела трудоустроиться лишь прислугой к некоей загадочной мисс Линдси. Её никогда нет дома, задания для Люси она оставляет в виде записок. Уже после первого дня девушка понимает, что попала в натуральный сумасшедший дом, где следует беспрекословно подчиняться установленным правилам и слепо подчиняться инструкциям.

  • Мировая премьера: 31 марта 2015


Качество видео: HDRip

Продолжительность: 01:28:16
Формат: AVI
Видео: XviD, 720x400 (16:9), 25.000 fps, 1969 kbps
Аудио: русский, любительский двухголосый закадровый (2D), AC3 2.0, 48 kHz, 192 kbps

Код:

Общее
Полное имя : Housekeeping.L2.2013.HDRip.avi.
Формат : AVI
Формат/Информация : Audio Video Interleave
Размер файла : 1,34 Гбайт
Продолжительность : 1 ч. 28 м.
Общий поток : 2171 Кбит/сек
Программа кодирования : VirtualDubMod 1.5.10.3
Библиотека кодирования : VirtualDubMod build 2550/release

Видео
Идентификатор : 0
Формат : MPEG-4 Visual
Профиль формата : Advanced Simple@L5
Параметр BVOP формата : 1
Параметр QPel формата : Нет
Параметр GMC формата : Без точки перехода
Параметр матрицы формата : Default (H.263)
Идентификатор кодека : XVID
Идентификатор кодека/Подсказка : XviD
Продолжительность : 1 ч. 28 м.
Битрейт : 1969 Кбит/сек
Ширина : 720 пикселей
Высота : 400 пикселей
Соотношение сторон : 16:9
Частота кадров : 25,000 кадров/сек
Цветовое пространство : YUV
Субдискретизация насыщенности : 4:2:0
Битовая глубина : 8 бит
Тип развёртки : Прогрессивная
Метод сжатия : С потерями
Бит/(Пиксели*Кадры) : 0.274
Размер потока : 1,21 Гбайт (91%)
Библиотека кодирования : XviD 1.2.1 (UTC 2008-12-04)

Аудио
Идентификатор : 1
Формат : AC-3
Формат/Информация : Audio Coding 3
Расширение режима : CM (complete main)
Идентификатор кодека : 2000
Продолжительность : 1 ч. 28 м.
Вид битрейта : Постоянный
Битрейт : 192 Кбит/сек
Каналы : 2 канала
Расположение каналов : Front: L R
Частота : 48,0 КГц
Битовая глубина : 16 бит
Метод сжатия : С потерями
Размер потока : 121 Мбайт (9%)
Выравнивание : Разделение по промежуткам
Продолжительность промежутка : 40 мс. (1,00 видеокадр)
Время предзагрузки промежутка : 500 мс.
picpicpicpicpic
Для увеличения картинки щелкните мышкой по превью

Этот торрент недоступен для скачивания без регистрации, однако доступен по публичной magnet-ссылке (источники с публичных трекеров). Перед использованием ссылки прочтите, пожалуйста Пользовательское соглашение, а также как можно дольше оставайтесь на раздаче! Для того, чтобы скачать сам торрент-файл (который видит больше источников), а также для того, чтобы поблагодарить релизера, вам необходимо зарегистрироваться. Если регистрироваться лень - вы можете также попробовать скачать релиз по нашим партнерским ссылкам ниже.

[underverse.su].t58162.torrent
Трекер: Зарегистрирован   [ 13.09.2015 11:27 ]  

Статус: проверено (by makkol at 16.09.2015 10:19)
Поблагодарили: пока никто не поблагодарил...
Тип торрента: публичный - доступные источники с открытых трекеров: 
Размер: 1,34 GB (занимает 0,31 DVDR, для записи нужно 1 болванка DVDR/RW)
 
 
Похожие темы
Форум Тема Автор Торрент Отв. Посл. сооб.
[18+] 3D Хентай Горничная на продажу! | Продана девушка Мейд Ай! | Impregnation Bible - A Maid on Sale! | Sold bible cum Maid Ai! (Hamburg Gakari) [2009, Anal sex, Big tits, Oral sex, Maids, Traps, Futanari, Yuri,... Печаль'ka
0 | 1

0 | 1405

64

16.08.2012 21:41


Яндекс.Метрика powered by Sphinx


В Н И М А Н И Е
Сайт не распространяет и не хранит электронные версии произведений, а лишь бесплатно и без коммерческой выгоды (не требуя взамен платы,
SMS и т.д.) предоставляет доступ к создаваемому пользователями каталогу ссылок на торрент-файлы, которые содержат только списки хеш-сумм.
Убедительная просьба с жалобами обращаться напрямую к пользователю, разместившему торрент файл.

Вверх