Loading...
Error

Лучшее лето / Летняя сказка / Den Basta Sommaren / A Summer Tale (Ульф Мальмрос) [2000 г., драма, комедия, семейный, DVDRip] VO + Original

Статистика раздачи
Размер:  1,63 GB   |    Зарегистрирован:  1 год 5 месяцев   |    Скачан:  10 раз

Полного источника не было: 8 месяцев

Сидов:  0  |  0 KB/s  ]   Личеров:  0  |  0 KB/s  ]

* - сиды/пиры с внешних источников

   
 
Автор Сообщение

makkol Пол:Муж

12-Сен-2015 14:20

Лучшее лето / Летняя сказка / Den Bästa Sommaren / A Summer Tale


Год выпуска: 2000
Жанр: драма, комедия, семейный
Страна: Швеция
Режиссер: Ульф Мальмрос
В ролях: Кьел Бергквист, Анастасиос Соулис, Ребекка Шейя, Сесилия Нильсон, Брассе Бранстрём, Маркус Хассельборг, Гачуго Макини, Йоран Торель, Анн Петрен, Пале Олофссон
Сюжет фильма:
Анника и Мортен - сироты, которые приезжают пожить летом 1958 года в деревню к господину Юханссону, местному гробовщику.
Почалу он кажется детям черствым и угрюмым, но постепенно они проникаются симпатией к этому одинокому и добродушному человеку...

  • Мировая премьера: 8 марта 2000


Перевод: Андрей Сивцов
Озвучивание: Вячеслав Прошин

Качество видео: DVDRip

Продолжительность: 01:27:08
Формат: AVI
Видео: XviD, 720x400 (16:9), 25.000 fps, 1767 kbps
Аудио #1: русский, любительский одноголосый закадровый, AC3 5.1, 48 kHz, 448 kbps
Аудио #2: английский, оригинал, AC3 5.1, 48 kHz, 448 kbps

Код:

General
Complete name : Den.Basta.Sommaren.rus.swe.avi
Format : AVI
Format/Info : Audio Video Interleave
File size : 1.63 GiB
Duration : 1h 27mn
Overall bit rate : 2 678 Kbps
Writing application : VirtualDubModRus 1.5.10.2 (build 2540/release)
Writing library : VirtualDubMod build 2540/release

Video
ID : 0
Format : MPEG-4 Visual
Format profile : Advanced Simple@L5
Format settings, BVOP : Yes
Format settings, QPel : No
Format settings, GMC : No warppoints
Format settings, Matrix : Custom
Codec ID : XVID
Codec ID/Hint : XviD
Duration : 1h 27mn
Bit rate : 1 767 Kbps
Width : 720 pixels
Height : 400 pixels
Display aspect ratio : 16:9
Frame rate : 25.000 fps
Color space : YUV
Chroma subsampling : 4:2:0
Bit depth : 8 bits
Scan type : Progressive
Bits/(Pixel*Frame) : 0.245
Stream size : 1.08 GiB (66%)
Writing library : XviD 1.2.1 (UTC 2008-12-04)

Audio #1
ID : 1
Format : AC-3
Format/Info : Audio Coding 3
Mode extension : CM (complete main)
Codec ID : 2000
Duration : 1h 27mn
Bit rate mode : Constant
Bit rate : 448 Kbps
Channel(s) : 6 channels
Channel positions : Front: L C R, Side: L R, LFE
Sampling rate : 48.0 KHz
Stream size : 279 MiB (17%)
Alignment : Split accross interleaves
Interleave, duration : 40 ms (1.00 video frame)
Interleave, preload duration : 500 ms

Audio #2
ID : 2
Format : AC-3
Format/Info : Audio Coding 3
Mode extension : CM (complete main)
Codec ID : 2000
Duration : 1h 27mn
Bit rate mode : Constant
Bit rate : 448 Kbps
Channel(s) : 6 channels
Channel positions : Front: L C R, Side: L R, LFE
Sampling rate : 48.0 KHz
Stream size : 279 MiB (17%)
Alignment : Split accross interleaves
Interleave, duration : 40 ms (1.00 video frame)
Interleave, preload duration : 500 ms
Релиз:

picpicpicpicpic
Для увеличения картинки щелкните мышкой по превью

Этот торрент недоступен для скачивания без регистрации, однако доступен по публичной magnet-ссылке (источники с публичных трекеров). Перед использованием ссылки прочтите, пожалуйста Пользовательское соглашение, а также как можно дольше оставайтесь на раздаче! Для того, чтобы скачать сам торрент-файл (который видит больше источников), а также для того, чтобы поблагодарить релизера, вам необходимо зарегистрироваться. Если регистрироваться лень - вы можете также попробовать скачать релиз по нашим партнерским ссылкам ниже.

[underverse.su].t58130.torrent
Трекер: Зарегистрирован   [ 12.09.2015 14:20 ]  

Статус: проверено (by makkol at 12.09.2015 15:09)
Поблагодарили: 1 человек
Тип торрента: публичный - доступные источники с открытых трекеров: 
Размер: 1,63 GB (занимает 0,37 DVDR, для записи нужно 1 болванка DVDR/RW)
 
 

Яндекс.Метрика powered by Sphinx


В Н И М А Н И Е
Сайт не распространяет и не хранит электронные версии произведений, а лишь бесплатно и без коммерческой выгоды (не требуя взамен платы,
SMS и т.д.) предоставляет доступ к создаваемому пользователями каталогу ссылок на торрент-файлы, которые содержат только списки хеш-сумм.
Убедительная просьба с жалобами обращаться напрямую к пользователю, разместившему торрент файл.

Вверх