Loading...
Error

В первый раз / Я поцеловал девушку / Toute Premiere Fois / I Kissed A Girl (Максим Говаре, Ноеми Саглио) [2015 г., комедия, HDRip] DVO

Статистика раздачи
Размер:  1,36 GB   |    Зарегистрирован:  1 год 10 месяцев   |    Скачан:  29 раз

Полного источника не было: 10 месяцев

Сидов:  0  |  0 KB/s  ]   Личеров:  0  |  0 KB/s  ]

* - сиды/пиры с внешних источников

   
 
Автор Сообщение

makkol Пол:Муж

12-Сен-2015 12:50

В первый раз / Я поцеловал девушку / Toute Premiere Fois / I Kissed A Girl


Год выпуска: 2015
Жанр: комедия
Производство: Франция [Gaumont]
Режиссер: Максим Говаре, Ноеми Саглио
В ролях: Пио Мармай, Франк Гастамбид, Ланник Готри, Камилль Коттин, Фредерик Пьеро, Изабель Канделье, Николь Феррони, Себастьен Кастро
Сюжет фильма:
Жереми просыпается в постели с очаровательной блондинкой. Казалось бы, невозможная для него ситуация - ведь он гей и собирается замуж за своего давнего бойфренда. Но Адна не выходит у него из головы и вскоре Жереми понимает, что по уши влюбился в девушку. Теперь ему придётся бросить Антуана и признаваться родным и друзьям в нормальной ориентации, что в современном толерантном обществе будет воспринято неоднозначно. Но настоящая любовь преодолеет всё.

  • Мировая премьера: 15 января 2015


Качество видео: HDRip

Продолжительность: 01:31:29
Формат: AVI
Видео: XviD, 720x304 (2.35:1), 24.000 fps, 1934 kbps
Аудио: русский, любительский двухголосый закадровый, MP3 2.0, 48 kHz, 192 kbps
Субтитры: русские вшитые неотключаемые (на надписи и песни)

Код:

General
Complete name : Toute.premiere.fois.2015.DVO.avi
Format : AVI
Format/Info : Audio Video Interleave
File size : 1.36 GiB
Duration : 1h 31mn
Overall bit rate : 2 136 Kbps

Video
ID : 0
Format : MPEG-4 Visual
Format profile : Simple@L3
Format settings, BVOP : No
Format settings, QPel : No
Format settings, GMC : No warppoints
Format settings, Matrix : Default (H.263)
Codec ID : XVID
Codec ID/Hint : XviD
Duration : 1h 31mn
Bit rate : 1 935 Kbps
Width : 720 pixels
Height : 304 pixels
Display aspect ratio : 2.35:1
Frame rate : 24.000 fps
Color space : YUV
Chroma subsampling : 4:2:0
Bit depth : 8 bits
Scan type : Progressive
Compression mode : Lossy
Bits/(Pixel*Frame) : 0.368
Stream size : 1.24 GiB (91%)
Writing library : XviD 64

Audio
ID : 1
Format : MPEG Audio
Format version : Version 1
Format profile : Layer 3
Mode : Joint stereo
Codec ID : 55
Codec ID/Hint : MP3
Duration : 1h 31mn
Source duration : 1h 31mn
Bit rate mode : Constant
Bit rate : 192 Kbps
Channel(s) : 2 channels
Sampling rate : 48.0 KHz
Compression mode : Lossy
Stream size : 126 MiB (9%)
Alignment : Aligned on interleaves
Interleave, duration : 42 ms (1.00 video frame)
Writing library : LAME3.99r
Encoding settings : -m j -V 4 -q 3 -lowpass 18.6 -b 192
Озвучка: NeigeMort & Daniel
Перевод: Antoine
Работа со звуком: Bif Tennet
По заказу: dmvolkov
picpicpicpicpic
Для увеличения картинки щелкните мышкой по превью

Этот торрент недоступен для скачивания без регистрации, однако доступен по публичной magnet-ссылке (источники с публичных трекеров). Перед использованием ссылки прочтите, пожалуйста Пользовательское соглашение, а также как можно дольше оставайтесь на раздаче! Для того, чтобы скачать сам торрент-файл (который видит больше источников), а также для того, чтобы поблагодарить релизера, вам необходимо зарегистрироваться. Если регистрироваться лень - вы можете также попробовать скачать релиз по нашим партнерским ссылкам ниже.

[underverse.su].t58124.torrent
Трекер: Зарегистрирован   [ 12.09.2015 12:50 ]  

Статус: проверено (by makkol at 12.09.2015 15:02)
Поблагодарили: пока никто не поблагодарил...
Тип торрента: публичный - доступные источники с открытых трекеров: 
Размер: 1,36 GB (занимает 0,31 DVDR, для записи нужно 1 болванка DVDR/RW)
 
 
Похожие темы
Форум Тема Автор Торрент Отв. Посл. сооб.
Зарубежное кино [DVDRip, Low-Res HDRip, и т.д.] В первый раз / The First Time (Джон Кэздан) [2012 г., драма, мелодрама, комедия, DVDRip] Dub RG NewCinema
0 | 0

0 | 1367

53

07.03.2013 07:00

% Зарубежное кино [DVDRip, Low-Res HDRip, и т.д.] В первый раз / The First Time (Джон Кэздан / Jon Kasdan) [2012 г., мелодрама, комедия, HDRip] Dub Паукан
18 | 0

0 | 1102

7

23.09.2013 08:55

Зарубежное кино [DVDRip, Low-Res HDRip, и т.д.] В первый раз / The First Time (Джон Кэздан) [2012 г., романтическая комедия, BDRip] Dub + Original + Sub (Rus, Eng) 90ytr90
1 | 0

0 | 1472

39

26.09.2013 14:40


Яндекс.Метрика powered by Sphinx


В Н И М А Н И Е
Сайт не распространяет и не хранит электронные версии произведений, а лишь бесплатно и без коммерческой выгоды (не требуя взамен платы,
SMS и т.д.) предоставляет доступ к создаваемому пользователями каталогу ссылок на торрент-файлы, которые содержат только списки хеш-сумм.
Убедительная просьба с жалобами обращаться напрямую к пользователю, разместившему торрент файл.

Вверх