Loading...
Error

Мастер / The Master (Сюй Хаофэн) [2015 г., боевик, исторический, DVDRip] VO

Статистика раздачи
Размер:  1,37 GB   |    Зарегистрирован:  1 год 2 месяца   |    Скачан:  66 раз
Сидов:  1  |  0 KB/s  ]   Личеров:  0  |  0 KB/s  ]

* - сиды/пиры с внешних источников

   
 
Автор Сообщение

makkol Пол:Муж

12-Сен-2015 12:01

Мастер / The Master


Год выпуска: 2015
Жанр: боевик, исторический
Страна: Китай
Режиссер: Сюй Хаофэн
В ролях: Ляо Фань, Сун Цзя, Ли Ся, Цзян Вэнь Ли, Хуан Цзю, Чинь Ши Чи, Сун Ян
Сюжет фильма:
Китай, середина 19 века. Великобритания наводнила Китай опиумом. Истинные патриоты всеми силами пытаются остановить гибель нации. По всей стране открываются школы боевых искусств, в расчете на то, что молодежь будет вести здоровый образ жизни. В фильме показана история открытия первой школы Чой Ли Фут...

  • Мировая премьера: 11 декабря 2015


Качество видео: DVDRip

Продолжительность: 01:30:02
Формат: AVI
Видео: XviD, 720x320 (2.25:1), 23.976 fps, 1976 kbps
Аудио: русский, любительский одноголосый закадровый (Виктор Береговых), AC3 2.0, 48 kHz, 192 kbps

Код:

Format : AVI
Format/Info : Audio Video Interleave
File size : 1.37 GiB
Duration : 1h 30mn
Overall bit rate : 2 174 Kbps
Writing application : VirtualDubMod 1.5.4.1 (build 2178/release)
Writing library : VirtualDubMod build 2178/release

Video
ID : 0
Format : MPEG-4 Visual
Format profile : AdvancedSimple@L5
Format settings, BVOP : No
Format settings, QPel : No
Format settings, GMC : No warppoints
Format settings, Matrix : Custom
Codec ID : XVID
Codec ID/Hint : XviD
Duration : 1h 30mn
Bit rate : 1 976 Kbps
Width : 720 pixels
Height : 320 pixels
Display aspect ratio : 2.25:1
Frame rate : 23.976 fps
Resolution : 24 bits
Colorimetry : 4:2:0
Scan type : Progressive
Bits/(Pixel*Frame) : 0.358
Stream size : 1.24 GiB (91%)
Writing library : XviD 1.2.0.dev47 (UTC 2006-11-01)

Audio
ID : 1
Format : AC-3
Format/Info : Audio Coding 3
Codec ID : 2000
Duration : 1h 30mn
Bit rate mode : Constant
Bit rate : 192 Kbps
Channel(s) : 2 channels
Channel positions : L R
Sampling rate : 48.0 KHz
Stream size : 124 MiB (9%)
Alignment : Split accross interleaves
Interleave, duration : 96 ms (2.30 video frames)
Interleave, preload duration : 96 ms
Language : Russian
picpicpicpicpic
Для увеличения картинки щелкните мышкой по превью

Этот торрент недоступен для скачивания без регистрации, однако доступен по публичной magnet-ссылке (источники с публичных трекеров). Перед использованием ссылки прочтите, пожалуйста Пользовательское соглашение, а также как можно дольше оставайтесь на раздаче! Для того, чтобы скачать сам торрент-файл (который видит больше источников), а также для того, чтобы поблагодарить релизера, вам необходимо зарегистрироваться. Если регистрироваться лень - вы можете также попробовать скачать релиз по нашим партнерским ссылкам ниже.

[underverse.su].t58120.torrent
Трекер: Зарегистрирован   [ 12.09.2015 12:01 ]  

Статус: # сомнительно (by makkol at 14.09.2015 12:43)
Поблагодарили: 2 человека
Тип торрента: публичный - доступные источники с открытых трекеров: 
Размер: 1,37 GB (занимает 0,31 DVDR, для записи нужно 1 болванка DVDR/RW)
 
 
Похожие темы
Форум Тема Автор Торрент Отв. Посл. сооб.
Зарубежное кино [DVDRip, Low-Res HDRip, и т.д.] Мастер / The Master (Пол Томас Андерсон) [2012 г., драма, HDRip] Dub RG NewCinema
0 | 0

0 | 1469

81

13.03.2013 08:26

Зарубежное кино [DVDRip, Low-Res HDRip, и т.д.] Мастер / The Master (Пол Томас Андерсон) [2012 г., драма, HDRip] Dub 90ytr90
2 | 0

0 | 486

32

13.03.2013 14:36

Зарубежное кино [DVDRip, Low-Res HDRip, и т.д.] Мастер / The Master (Пол Томас Андерсон / Paul Thomas Anderson) [2012 г., драма, BDRip] Dub Gaarochi
1 | 0

0 | 1092

19

25.03.2013 09:30

Зарубежное кино [DVDRip, Low-Res HDRip, и т.д.] Мастер / The Master (Пол Томас Андерсон) [2012 г., драма, BDRip-AVC] Dub + AVO + Original Чертёнок
8 | 0

0 | 536

12

20.04.2013 15:51

Зарубежное кино [DVDRip, Low-Res HDRip, и т.д.] Мастер / The Master (Пол Томас Андерсон) [2012 г., драма, BDRip-AVC] Dub (Rus) + AVO (Сербин) + MVO (Ukr) + Original (Eng) + Sub (Rus, Eng) 90ytr90
18 | 0

0 | 535

4

25.02.2015 16:27

Зарубежное кино HQ Мастер / The Master (Пол Томас Андерсон) [2012 г., драма, BDRip] Dub + AVO + Eng + Sub(Rus,Eng) HQ Underverse HQ Underverse
0 | 0

2 | 1791

60

03.04.2013 12:11

makkol Пол:Муж

14-Сен-2015 13:22

Прошу прощения у всех введённых в заблуждение, но в раздаче похоже всё-таки этот фильм http://www.imdb.com/title/tt4273106/
Никакой информации о нём на русском найти не смог.

Яндекс.Метрика powered by Sphinx


В Н И М А Н И Е
Сайт не распространяет и не хранит электронные версии произведений, а лишь бесплатно и без коммерческой выгоды (не требуя взамен платы,
SMS и т.д.) предоставляет доступ к создаваемому пользователями каталогу ссылок на торрент-файлы, которые содержат только списки хеш-сумм.
Убедительная просьба с жалобами обращаться напрямую к пользователю, разместившему торрент файл.

Вверх