Loading...
Error

Сообщество / Community / Сезон 5 (1-13 серии из 13) ( Тристрам Шапиро, Джо Руссо, Энтони Руссо) [2014 г., комедия, WEB-DLRip] DVO + Original

Статистика раздачи
Размер:  2,85 GB   |    Зарегистрирован:  1 год 2 месяца   |    Скачан:  3 раза

Полного источника не было: 2 месяца 21 день

Сидов:  0  |  0 KB/s  ]   Личеров:  0  |  0 KB/s  ]

* - сиды/пиры с внешних источников

   
 
Автор Сообщение

older Пол:Муж

12-Сен-2015 09:56

Сообщество / Community / Сезон 5


Год выпуска: 2014
Жанр: комедия
Страна: США
Режиссер: Тристрам Шапиро, Джо Руссо, Энтони Руссо
В ролях: Джоэл МакХэйл / Joel McHale, Джиллиан Джейкобс / Gillian Jacobs, Дэнни Пуди / Danny Pudi, Иветт Николь Браун / Yvette Nicole Brown, Элисон Бри / Alison Brie, Дональд Гловер / Donald Glover, Чеви Чейз / Chevy Chase
Сюжет фильма:
Сериал рассказывает о студенческом сообществе, которое состоит из школьных лузеров, недавно разведенных домохозяек и пожилых людей, старающихся сохранить трезвый ум.

Качество видео: WEB-DLRip

Продолжительность: ~ 00:21:00
Формат: AVI
Видео: XviD, 624x352, 1000 kbps
Аудио #1: русский, двухголосый закадровый [профессиональный], MP3 2.0, 224 kbps - Кубик в Кубе
Аудио #2: английский, оригинал, MP3 2.0, 224 kbps
Субтитры: тип: внешние, русский, формат: SRT (в 3,6,10,11,12,13, сериях на непереведенные моменты)

Код:

Общее
Полное имя                               : \Community Season 5 Kybik v Kybe\Community.s05e01.rus.eng.CasStudio.TV.avi
Формат                                   : AVI
Формат/Информация                        : Audio Video Interleave
Размер файла                             : 226 Мбайт
Продолжительность                        : 21 м.
Общий поток                              : 1462 Кбит/сек
Программа кодирования                    : VirtualDubMod 1.5.10.2 (build 2540/release)
Библиотека кодирования                   : VirtualDubMod build 2540/release

Видео
Идентификатор                            : 0
Формат                                   : MPEG-4 Visual
Профиль формата                          : Advanced Simple@L5
Параметр BVOP формата                    : 1
Параметр QPel формата                    : Нет
Параметр GMC формата                     : Без точки перехода
Параметр матрицы формата                 : Default (H.263)
Идентификатор кодека                     : XVID
Идентификатор кодека/Подсказка           : XviD
Продолжительность                        : 21 м.
Битрейт                                  : 1000 Кбит/сек
Ширина                                   : 624 пикселя
Высота                                   : 352 пикселя
Соотношение сторон                       : 16:9
Частота кадров                           : 23,976 кадра/сек
Цветовое пространство                    : YUV
Субдискретизация насыщенности            : 4:2:0
Битовая глубина                          : 8 бит
Тип развёртки                            : Прогрессивная
Метод сжатия                             : С потерями
Бит/(Пиксели*Кадры)                      : 0.190
Размер потока                            : 154 Мбайт (68%)
Библиотека кодирования                   : XviD 65

Аудио #1
Идентификатор                            : 1
Формат                                   : MPEG Audio
Версия формата                           : Version 1
Профиль формата                          : Layer 3
Идентификатор кодека                     : 55
Идентификатор кодека/Подсказка           : MP3
Продолжительность                        : 21 м.
Вид битрейта                             : Постоянный
Битрейт                                  : 224 Кбит/сек
Каналы                                   : 2 канала
Частота                                  : 48,0 КГц
Метод сжатия                             : С потерями
Размер потока                            : 34,6 Мбайт (15%)
Выравнивание                             : Соединение по промежуткам
Продолжительность промежутка             : 42  мс. (1,00 видеокадр)
Время предзагрузки промежутка            : 504  мс.

Аудио #2
Идентификатор                            : 2
Формат                                   : MPEG Audio
Версия формата                           : Version 1
Профиль формата                          : Layer 3
Режим                                    : Joint stereo
Расширение режима                        : MS Stereo
Идентификатор кодека                     : 55
Идентификатор кодека/Подсказка           : MP3
Продолжительность                        : 21 м.
Вид битрейта                             : Постоянный
Битрейт                                  : 224 Кбит/сек
Каналы                                   : 2 канала
Частота                                  : 48,0 КГц
Метод сжатия                             : С потерями
Размер потока                            : 34,6 Мбайт (15%)
Выравнивание                             : Соединение по промежуткам
Продолжительность промежутка             : 42  мс. (1,00 видеокадр)
Время предзагрузки промежутка            : 504  мс.
Библиотека кодирования                   : LAME3.99r
Настройки программы                      : -m j -V 4 -q 2 -lowpass 19.4 -b 224

Автор релиза: ЛП
Рип: ЛП
Озвучка: Кубик в Кубе
При поддержке: YouComedyMe
Релиз группы:

picpicpicpicpic
Для увеличения картинки щелкните мышкой по превью

Этот торрент недоступен для скачивания без регистрации, однако доступен по публичной magnet-ссылке (источники с публичных трекеров). Перед использованием ссылки прочтите, пожалуйста Пользовательское соглашение, а также как можно дольше оставайтесь на раздаче! Для того, чтобы скачать сам торрент-файл (который видит больше источников), а также для того, чтобы поблагодарить релизера, вам необходимо зарегистрироваться. Если регистрироваться лень - вы можете также попробовать скачать релиз по нашим партнерским ссылкам ниже.

[underverse.su].t58115.torrent
Трекер: Зарегистрирован   [ 12.09.2015 09:56 ]  

Статус: проверено (by makkol at 12.09.2015 11:06)
Поблагодарили: пока никто не поблагодарил...
Тип торрента: публичный - доступные источники с открытых трекеров: 
Размер: 2,85 GB (занимает 0,65 DVDR, для записи нужно 1 болванка DVDR/RW)
 
 
Похожие темы
Форум Тема Автор Торрент Отв. Посл. сооб.
Зарубежные сериалы Сообщество / Community / Сезон 1 (1-25 серии из 25) (Тристрам Шапиро, Джо Руссо, Энтони Руссо) [2009 г., комедия, HDTVRip] DVO + Original older
34 | 13

0 | 429

3

12.09.2015 06:45

Зарубежные сериалы Сообщество / Community / Сезон 2 (1-24 серии из 24) (Тристрам Шапиро, Джо Руссо, Энтони Руссо) [2010 г., комедия, HDTVRip] DVO + Original older
23 | 2

0 | 365

2

12.09.2015 07:35

Зарубежные сериалы Сообщество / Community / Сезон 3 (1-22 серии из 22) (Тристрам Шапиро, Джо Руссо, Энтони Руссо) [2011 г., комедия, WEB-DLRip] DVO + Original older
28 | 6

0 | 367

2

12.09.2015 08:52

Зарубежные сериалы Сообщество / Community / Сезон 4 (1-13 серии из 13) (Тристрам Шапиро, Джо Руссо, Энтони Руссо) [2013 г., комедия, WEB-DLRip] DVO + Original older
1 | 0

0 | 373

2

12.09.2015 09:27

Зарубежные сериалы Сообщество / Community / Сезон 6 (1-13 серии из 13) (Тристрам Шапиро, Джо Руссо, Энтони Руссо) [2015 г., комедия, WEB-DLRip] DVO + Original older
70 | 7

1 | 647

3

21.10.2015 07:58


Яндекс.Метрика powered by Sphinx


В Н И М А Н И Е
Сайт не распространяет и не хранит электронные версии произведений, а лишь бесплатно и без коммерческой выгоды (не требуя взамен платы,
SMS и т.д.) предоставляет доступ к создаваемому пользователями каталогу ссылок на торрент-файлы, которые содержат только списки хеш-сумм.
Убедительная просьба с жалобами обращаться напрямую к пользователю, разместившему торрент файл.

Вверх