Loading...
Error

Сообщество / Community / Сезон 4 (1-13 серии из 13) (Тристрам Шапиро, Джо Руссо, Энтони Руссо) [2013 г., комедия, WEB-DLRip] DVO + Original

Статистика раздачи
Размер:  2,93 GB   |    Зарегистрирован:  1 год 2 месяца   |    Скачан:  2 раза

Полного источника не было: 5 месяцев 9 дней

Сидов:  0  |  0 KB/s  ]   Личеров:  0  |  0 KB/s  ]

* - сиды/пиры с внешних источников

   
 
Автор Сообщение

older Пол:Муж

12-Сен-2015 09:27

Сообщество / Community / Сезон 4


Год выпуска: 2013
Жанр: комедия
Страна: США
Режиссер: Тристрам Шапиро, Джо Руссо, Энтони Руссо
В ролях: Джоэль МакХэйл, Джиллиан Джейкобс, Дэнни Пуди, Чеви Чейз, Элисон Бри, Ивет Николь Браун, Дональд Гловер, Кен Жонг, Джон Оливер, Патриция Белчер
Сюжет фильма:
Сериал рассказывает о студенческом сообществе, которое состоит из школьных лузеров, недавно разведенных домохозяек и пожилых людей, старающихся сохранить трезвый ум.

Качество видео: WEB-DLRip

Продолжительность: ~ 00:21:00
Формат: AVI
Видео: XviD, 720х400, 1231 kbps
Аудио #1: русский, двухголосый закадровый [профессиональный], MP3 2.0, 128 kbps - Кубик в Кубе
Аудио #2: английский, оригинал, MP3 2.0, 128 kbps
Субтитры: тип: внешние, русский, формат: SRT - (в 9 серии на непереведенные моменты)

Код:

Общее
Полное имя                               : \Community.s04.Kybik.v.Kybe\Community.s04e01.rus.eng.Kybik.v.Kybe.avi
Формат                                   : AVI
Формат/Информация                        : Audio Video Interleave
Размер файла                             : 230 Мбайт
Продолжительность                        : 21 м.
Общий поток                              : 1501 Кбит/сек
Программа кодирования                    : VirtualDubMod 1.5.10.3 | www.virtualdub-fr.org || (build 2550/release)
Библиотека кодирования                   : VirtualDubMod build 2550/release

Видео
Идентификатор                            : 0
Формат                                   : MPEG-4 Visual
Профиль формата                          : Advanced Simple@L5
Параметр BVOP формата                    : 2
Параметр QPel формата                    : Нет
Параметр GMC формата                     : Без точки перехода
Параметр матрицы формата                 : Default (H.263)
Идентификатор кодека                     : XVID
Идентификатор кодека/Подсказка           : XviD
Продолжительность                        : 21 м.
Битрейт                                  : 1231 Кбит/сек
Ширина                                   : 720 пикселей
Высота                                   : 400 пикселей
Соотношение сторон                       : 16:9
Частота кадров                           : 23,976 кадра/сек
Цветовое пространство                    : YUV
Субдискретизация насыщенности            : 4:2:0
Битовая глубина                          : 8 бит
Тип развёртки                            : Прогрессивная
Метод сжатия                             : С потерями
Бит/(Пиксели*Кадры)                      : 0.178
Размер потока                            : 189 Мбайт (82%)
Библиотека кодирования                   : XviD 1.2.1 (UTC 2008-12-04)

Аудио #1
Идентификатор                            : 1
Формат                                   : MPEG Audio
Версия формата                           : Version 1
Профиль формата                          : Layer 3
Идентификатор кодека                     : 55
Идентификатор кодека/Подсказка           : MP3
Продолжительность                        : 21 м.
Вид битрейта                             : Постоянный
Битрейт                                  : 128 Кбит/сек
Каналы                                   : 2 канала
Частота                                  : 48,0 КГц
Метод сжатия                             : С потерями
Размер потока                            : 19,6 Мбайт (9%)
Выравнивание                             : Соединение по промежуткам
Продолжительность промежутка             : 42  мс. (1,00 видеокадр)
Время предзагрузки промежутка            : 504  мс.
Библиотека кодирования                   : LAME3.99r
Настройки программы                      : -m s -V 4 -q 2 -lowpass 17 -b 128

Аудио #2
Идентификатор                            : 2
Формат                                   : MPEG Audio
Версия формата                           : Version 1
Профиль формата                          : Layer 3
Идентификатор кодека                     : 55
Идентификатор кодека/Подсказка           : MP3
Продолжительность                        : 21 м.
Вид битрейта                             : Постоянный
Битрейт                                  : 128 Кбит/сек
Каналы                                   : 2 канала
Частота                                  : 48,0 КГц
Метод сжатия                             : С потерями
Размер потока                            : 19,6 Мбайт (9%)
Выравнивание                             : Соединение по промежуткам
Продолжительность промежутка             : 42  мс. (1,00 видеокадр)
Время предзагрузки промежутка            : 504  мс.
Библиотека кодирования                   : LAME3.99r
Настройки программы                      : -m s -V 4 -q 2 -lowpass 17 -b 128

Озвучка: Руслан Габидуллин и Ольга Кравцова
Перевод: Джекетеур
Релиз группы:

picpicpicpicpic
Для увеличения картинки щелкните мышкой по превью

Этот торрент недоступен для скачивания без регистрации, однако доступен по публичной magnet-ссылке (источники с публичных трекеров). Перед использованием ссылки прочтите, пожалуйста Пользовательское соглашение, а также как можно дольше оставайтесь на раздаче! Для того, чтобы скачать сам торрент-файл (который видит больше источников), а также для того, чтобы поблагодарить релизера, вам необходимо зарегистрироваться. Если регистрироваться лень - вы можете также попробовать скачать релиз по нашим партнерским ссылкам ниже.

[underverse.su].t58114.torrent
Трекер: Зарегистрирован   [ 12.09.2015 09:27 ]  

Статус: проверено (by makkol at 12.09.2015 11:05)
Поблагодарили: пока никто не поблагодарил...
Тип торрента: публичный - доступные источники с открытых трекеров: 
Размер: 2,93 GB (занимает 0,67 DVDR, для записи нужно 1 болванка DVDR/RW)
 
 
Похожие темы
Форум Тема Автор Торрент Отв. Посл. сооб.
Зарубежные сериалы Сообщество / Community / Сезон 1 (1-25 серии из 25) (Тристрам Шапиро, Джо Руссо, Энтони Руссо) [2009 г., комедия, HDTVRip] DVO + Original older
34 | 13

0 | 430

3

12.09.2015 06:45

Зарубежные сериалы Сообщество / Community / Сезон 2 (1-24 серии из 24) (Тристрам Шапиро, Джо Руссо, Энтони Руссо) [2010 г., комедия, HDTVRip] DVO + Original older
23 | 2

0 | 365

2

12.09.2015 07:35

Зарубежные сериалы Сообщество / Community / Сезон 3 (1-22 серии из 22) (Тристрам Шапиро, Джо Руссо, Энтони Руссо) [2011 г., комедия, WEB-DLRip] DVO + Original older
28 | 6

0 | 368

2

12.09.2015 08:52

Зарубежные сериалы Сообщество / Community / Сезон 5 (1-13 серии из 13) ( Тристрам Шапиро, Джо Руссо, Энтони Руссо) [2014 г., комедия, WEB-DLRip] DVO + Original older
38 | 4

0 | 373

3

12.09.2015 09:56

Зарубежные сериалы Сообщество / Community / Сезон 6 (1-13 серии из 13) (Тристрам Шапиро, Джо Руссо, Энтони Руссо) [2015 г., комедия, WEB-DLRip] DVO + Original older
61 | 5

1 | 650

3

21.10.2015 07:58


Яндекс.Метрика powered by Sphinx


В Н И М А Н И Е
Сайт не распространяет и не хранит электронные версии произведений, а лишь бесплатно и без коммерческой выгоды (не требуя взамен платы,
SMS и т.д.) предоставляет доступ к создаваемому пользователями каталогу ссылок на торрент-файлы, которые содержат только списки хеш-сумм.
Убедительная просьба с жалобами обращаться напрямую к пользователю, разместившему торрент файл.

Вверх