Loading...
Error

Сообщество / Community / Сезон 3 (1-22 серии из 22) (Тристрам Шапиро, Джо Руссо, Энтони Руссо) [2011 г., комедия, WEB-DLRip] DVO + Original

Статистика раздачи
Размер:  7,83 GB   |    Зарегистрирован:  1 год 2 месяца   |    Скачан:  2 раза

Полного источника не было: 11 дней

Сидов:  0  |  0 KB/s  ]   Личеров:  0  |  0 KB/s  ]

* - сиды/пиры с внешних источников

   
 
Автор Сообщение

older Пол:Муж

12-Сен-2015 08:52

Сообщество / Community / Сезон 3


Год выпуска: 2011
Жанр: комедия
Страна: США
Режиссер: Тристрам Шапиро, Джо Руссо, Энтони Руссо
В ролях: Джоэль МакХэйл (Joel McHale), Джиллиан Джейкобс (Gillian Jacobs), Дэнни Пуди (Danny Pudi), Ивет Николь Браун (Yvette Nicole Brown), Чеви Чейз (Chevy Chase), Дональд Гловер (Donald Glover), Элисон Бри (Alison Brie), Кен Йонг (Ken Jeong), Эрик Кристиан Олсен (Eric Christian Olsen), Джим Раш (Jim Rash)
Сюжет фильма:
Сериал рассказывает о студенческом сообществе, которое состоит из школьных лузеров, недавно разведенных домохозяек и пожилых людей, старающихся сохранить трезвый ум.

Качество видео: WEB-DLRip

Продолжительность: ~ 00:21:00
Формат: AVI
Видео: XviD, 720х400, 2000 kbps
Аудио #1: русский, двухголосый закадровый [профессиональный], AC3 2.0, 192 kbps - Кубик в Кубе
Аудио #2: английский, оригинал, AC3 2.0, 192 kbps
Субтитры: тип: внешние, русский, формат: ASS (в 14 и 10 сериях, на непереведенные моменты)

Код:

Общее
Полное имя                               : \Community Season 3 WEB-DLRip Kybik v Kybe\Community.s03e01.rus.eng.Kybik.v.Kybe.avi
Формат                                   : AVI
Формат/Информация                        : Audio Video Interleave
Размер файла                             : 366 Мбайт
Продолжительность                        : 21 м.
Общий поток                              : 2398 Кбит/сек
Программа кодирования                    : VirtualDubMod 1.5.10.2 (build 2540/release)
Библиотека кодирования                   : VirtualDubMod build 2540/release

Видео
Идентификатор                            : 0
Формат                                   : MPEG-4 Visual
Профиль формата                          : Advanced Simple@L5
Параметр BVOP формата                    : 1
Параметр QPel формата                    : Нет
Параметр GMC формата                     : Без точки перехода
Параметр матрицы формата                 : Default (H.263)
Идентификатор кодека                     : XVID
Идентификатор кодека/Подсказка           : XviD
Продолжительность                        : 21 м.
Битрейт                                  : 2000 Кбит/сек
Ширина                                   : 720 пикселей
Высота                                   : 400 пикселей
Соотношение сторон                       : 16:9
Частота кадров                           : 23,976 кадра/сек
Цветовое пространство                    : YUV
Субдискретизация насыщенности            : 4:2:0
Битовая глубина                          : 8 бит
Тип развёртки                            : Прогрессивная
Метод сжатия                             : С потерями
Бит/(Пиксели*Кадры)                      : 0.290
Размер потока                            : 305 Мбайт (83%)
Библиотека кодирования                   : XviD 1.2.1 (UTC 2008-12-04)

Аудио #1
Идентификатор                            : 1
Формат                                   : AC-3
Формат/Информация                        : Audio Coding 3
Расширение режима                        : CM (complete main)
Параметр Endianness формата              : Big
Идентификатор кодека                     : 2000
Продолжительность                        : 21 м.
Вид битрейта                             : Постоянный
Битрейт                                  : 192 Кбит/сек
Каналы                                   : 2 канала
Расположение каналов                     : Front: L R
Частота                                  : 48,0 КГц
Битовая глубина                          : 16 бит
Метод сжатия                             : С потерями
Размер потока                            : 29,3 Мбайт (8%)
Выравнивание                             : Разделение по промежуткам
Продолжительность промежутка             : 42  мс. (1,00 видеокадр)
Время предзагрузки промежутка            : 500  мс.

Аудио #2
Идентификатор                            : 2
Формат                                   : AC-3
Формат/Информация                        : Audio Coding 3
Расширение режима                        : CM (complete main)
Параметр Endianness формата              : Big
Идентификатор кодека                     : 2000
Продолжительность                        : 21 м.
Вид битрейта                             : Постоянный
Битрейт                                  : 192 Кбит/сек
Каналы                                   : 2 канала
Расположение каналов                     : Front: L R
Частота                                  : 48,0 КГц
Битовая глубина                          : 16 бит
Метод сжатия                             : С потерями
Размер потока                            : 29,3 Мбайт (8%)
Выравнивание                             : Разделение по промежуткам
Продолжительность промежутка             : 42  мс. (1,00 видеокадр)
Время предзагрузки промежутка            : 500  мс.

Автор релиза: ЛП
Озвучка: Кубик в кубе
Перевод: Джекетеур
Редакция: Эль Брухо
Звука и рип: alex7691, ЛП
Постер: Чижик Пыжик
Релиз группы:

picpicpicpicpic
Для увеличения картинки щелкните мышкой по превью

Этот торрент недоступен для скачивания без регистрации, однако доступен по публичной magnet-ссылке (источники с публичных трекеров). Перед использованием ссылки прочтите, пожалуйста Пользовательское соглашение, а также как можно дольше оставайтесь на раздаче! Для того, чтобы скачать сам торрент-файл (который видит больше источников), а также для того, чтобы поблагодарить релизера, вам необходимо зарегистрироваться. Если регистрироваться лень - вы можете также попробовать скачать релиз по нашим партнерским ссылкам ниже.

[underverse.su].t58113.torrent
Трекер: Зарегистрирован   [ 12.09.2015 08:52 ]  

Статус: проверено (by makkol at 12.09.2015 09:08)
Поблагодарили: пока никто не поблагодарил...
Тип торрента: публичный - доступные источники с открытых трекеров: 
Размер: 7,83 GB (занимает 1,79 DVDR, для записи нужно 2 болванки DVDR/RW)
 
 
Похожие темы
Форум Тема Автор Торрент Отв. Посл. сооб.
Зарубежные сериалы Сообщество / Community / Сезон 1 (1-25 серии из 25) (Тристрам Шапиро, Джо Руссо, Энтони Руссо) [2009 г., комедия, HDTVRip] DVO + Original older
36 | 12

0 | 427

3

12.09.2015 06:45

Зарубежные сериалы Сообщество / Community / Сезон 2 (1-24 серии из 24) (Тристрам Шапиро, Джо Руссо, Энтони Руссо) [2010 г., комедия, HDTVRip] DVO + Original older
23 | 2

0 | 363

2

12.09.2015 07:35

Зарубежные сериалы Сообщество / Community / Сезон 4 (1-13 серии из 13) (Тристрам Шапиро, Джо Руссо, Энтони Руссо) [2013 г., комедия, WEB-DLRip] DVO + Original older
1 | 0

0 | 373

2

12.09.2015 09:27

Зарубежные сериалы Сообщество / Community / Сезон 5 (1-13 серии из 13) ( Тристрам Шапиро, Джо Руссо, Энтони Руссо) [2014 г., комедия, WEB-DLRip] DVO + Original older
38 | 4

0 | 372

3

12.09.2015 09:56

Зарубежные сериалы Сообщество / Community / Сезон 6 (1-13 серии из 13) (Тристрам Шапиро, Джо Руссо, Энтони Руссо) [2015 г., комедия, WEB-DLRip] DVO + Original older
70 | 7

1 | 647

3

21.10.2015 07:58


Яндекс.Метрика powered by Sphinx


В Н И М А Н И Е
Сайт не распространяет и не хранит электронные версии произведений, а лишь бесплатно и без коммерческой выгоды (не требуя взамен платы,
SMS и т.д.) предоставляет доступ к создаваемому пользователями каталогу ссылок на торрент-файлы, которые содержат только списки хеш-сумм.
Убедительная просьба с жалобами обращаться напрямую к пользователю, разместившему торрент файл.

Вверх