Loading...
Error

Сообщество / Community / Сезон 2 (1-24 серии из 24) (Тристрам Шапиро, Джо Руссо, Энтони Руссо) [2010 г., комедия, HDTVRip] DVO + Original

Статистика раздачи
Размер:  5,02 GB   |    Зарегистрирован:  1 год 2 месяца   |    Скачан:  2 раза

Полного источника не было: 1 месяц 26 дней

Сидов:  0  |  0 KB/s  ]   Личеров:  0  |  0 KB/s  ]

* - сиды/пиры с внешних источников

   
 
Автор Сообщение

older Пол:Муж

12-Сен-2015 07:35

Сообщество / Community / Сезон 2


Год выпуска: 2010
Жанр: комедия
Страна: США
Режиссер: Тристрам Шапиро, Джо Руссо, Энтони Руссо
В ролях: Джоэль МакХэйл (Joel McHale), Джиллиан Джейкобс (Gillian Jacobs), Дэнни Пуди (Danny Pudi), Ивет Николь Браун (Yvette Nicole Brown), Чеви Чейз (Chevy Chase), Дональд Гловер (Donald Glover), Элисон Бри (Alison Brie), Кен Йонг (Ken Jeong), Эрик Кристиан Олсен (Eric Christian Olsen), Джим Раш (Jim Rash)
Сюжет фильма:
Сериал рассказывает о студенческом сообществе, которое состоит из школьных лузеров, недавно разведенных домохозяек и пожилых людей, старающихся сохранить трезвый ум.

Качество видео: HDTVRip

Продолжительность: ~ 00:20:00
Формат: AVI
Видео: XviD, 624Х352, 1002 kbps
Аудио #1: русский, двухголосый закадровый [профессиональный], MP3 2.0, 256 kbps - Кубик в кубе
Аудио #2: английский, оригинал, MP3 2.0, 128 kbps
Субтитры: тип: внешние, английский, формат: SRT
01. Anthropology
02. Accounting for Lawyers
03. Introduction to Film
04. Basic Rocket Science
05. Messianic Myths and Ancient Peoples
06. Epidemiology
07. Aerodynamics of Gender
08. Cooperative Calligraphy
09. Conspiracy Theories and Interior Design
10. Mixology Certification
11. Abed's Uncontrollable Christmas
12. Asian Population Studies
13. Celebrity Pharmacology
14. Advanced Dungeons & Dragons
15. Early 21st Century Romanticism
16. Intermediate Documentary Filmmaking
17. Intro to Political Science
18. Custody Law and Eastern European Diplomacy
19. Critical Film Studies
20. Competitive Wine Tasting
21. Paradigms of Human Memory
22. Applied Anthropology and Culinary Arts
23. A Fist Full of Paintballs
24. For a Few Paintballs More

Код:

Общее
Полное имя                               : \Community Season 2 Kybik v Kybe\Community.s02e01.rus.eng.Kybik.v.Kybe.avi
Формат                                   : AVI
Формат/Информация                        : Audio Video Interleave
Размер файла                             : 214 Мбайт
Продолжительность                        : 20 м.
Режим общего битрейта                    : Переменный
Общий поток                              : 1429 Кбит/сек
Программа кодирования                    : VirtualDubMod 1.5.10.2 (build 2540/release)
Библиотека кодирования                   : VirtualDubMod build 2540/release

Видео
Идентификатор                            : 0
Формат                                   : MPEG-4 Visual
Профиль формата                          : Advanced Simple@L5
Параметр BVOP формата                    : 2
Параметр QPel формата                    : Нет
Параметр GMC формата                     : Без точки перехода
Параметр матрицы формата                 : Default (H.263)
Идентификатор кодека                     : XVID
Идентификатор кодека/Подсказка           : XviD
Продолжительность                        : 20 м.
Битрейт                                  : 1002 Кбит/сек
Ширина                                   : 624 пикселя
Высота                                   : 352 пикселя
Соотношение сторон                       : 16:9
Частота кадров                           : 23,976 кадра/сек
Цветовое пространство                    : YUV
Субдискретизация насыщенности            : 4:2:0
Битовая глубина                          : 8 бит
Тип развёртки                            : Прогрессивная
Метод сжатия                             : С потерями
Бит/(Пиксели*Кадры)                      : 0.190
Размер потока                            : 150 Мбайт (70%)
Библиотека кодирования                   : XviD 1.2.1 (UTC 2008-12-04)

Аудио #1
Идентификатор                            : 1
Формат                                   : MPEG Audio
Версия формата                           : Version 1
Профиль формата                          : Layer 3
Идентификатор кодека                     : 55
Идентификатор кодека/Подсказка           : MP3
Продолжительность                        : 20 м.
Вид битрейта                             : Постоянный
Битрейт                                  : 256 Кбит/сек
Каналы                                   : 2 канала
Частота                                  : 48,0 КГц
Метод сжатия                             : С потерями
Размер потока                            : 38,4 Мбайт (18%)
Выравнивание                             : Соединение по промежуткам
Продолжительность промежутка             : 42  мс. (1,00 видеокадр)
Время предзагрузки промежутка            : 504  мс.

Аудио #2
Идентификатор                            : 2
Формат                                   : MPEG Audio
Версия формата                           : Version 1
Профиль формата                          : Layer 3
Идентификатор кодека                     : 55
Идентификатор кодека/Подсказка           : MP3
Продолжительность                        : 20 м.
Вид битрейта                             : Переменный
Битрейт                                  : 128 Кбит/сек
Каналы                                   : 2 канала
Частота                                  : 48,0 КГц
Метод сжатия                             : С потерями
Размер потока                            : 23,0 Мбайт (11%)
Выравнивание                             : Соединение по промежуткам
Продолжительность промежутка             : 24  мс. (0,58 видеокадр)
Время предзагрузки промежутка            : 531  мс.

Автор релиза: ЛП
Перевод: Джекетеур
Озвучка: Кубик в кубе
Релиз группы:

picpicpicpicpic
Для увеличения картинки щелкните мышкой по превью

Этот торрент недоступен для скачивания без регистрации, однако доступен по публичной magnet-ссылке (источники с публичных трекеров). Перед использованием ссылки прочтите, пожалуйста Пользовательское соглашение, а также как можно дольше оставайтесь на раздаче! Для того, чтобы скачать сам торрент-файл (который видит больше источников), а также для того, чтобы поблагодарить релизера, вам необходимо зарегистрироваться. Если регистрироваться лень - вы можете также попробовать скачать релиз по нашим партнерским ссылкам ниже.

[underverse.su].t58112.torrent
Трекер: Зарегистрирован   [ 12.09.2015 07:35 ]  

Статус: проверено (by makkol at 12.09.2015 09:04)
Поблагодарили: пока никто не поблагодарил...
Тип торрента: публичный - доступные источники с открытых трекеров: 
Размер: 5,02 GB (занимает 1,15 DVDR, для записи нужно 2 болванки DVDR/RW)
 
 
Похожие темы
Форум Тема Автор Торрент Отв. Посл. сооб.
Зарубежные сериалы Сообщество / Community / Сезон 1 (1-25 серии из 25) (Тристрам Шапиро, Джо Руссо, Энтони Руссо) [2009 г., комедия, HDTVRip] DVO + Original older
34 | 13

0 | 428

3

12.09.2015 06:45

Зарубежные сериалы Сообщество / Community / Сезон 3 (1-22 серии из 22) (Тристрам Шапиро, Джо Руссо, Энтони Руссо) [2011 г., комедия, WEB-DLRip] DVO + Original older
28 | 6

0 | 367

2

12.09.2015 08:52

Зарубежные сериалы Сообщество / Community / Сезон 4 (1-13 серии из 13) (Тристрам Шапиро, Джо Руссо, Энтони Руссо) [2013 г., комедия, WEB-DLRip] DVO + Original older
1 | 0

0 | 373

2

12.09.2015 09:27

Зарубежные сериалы Сообщество / Community / Сезон 5 (1-13 серии из 13) ( Тристрам Шапиро, Джо Руссо, Энтони Руссо) [2014 г., комедия, WEB-DLRip] DVO + Original older
38 | 4

0 | 372

3

12.09.2015 09:56

Зарубежные сериалы Сообщество / Community / Сезон 6 (1-13 серии из 13) (Тристрам Шапиро, Джо Руссо, Энтони Руссо) [2015 г., комедия, WEB-DLRip] DVO + Original older
70 | 7

1 | 647

3

21.10.2015 07:58


Яндекс.Метрика powered by Sphinx


В Н И М А Н И Е
Сайт не распространяет и не хранит электронные версии произведений, а лишь бесплатно и без коммерческой выгоды (не требуя взамен платы,
SMS и т.д.) предоставляет доступ к создаваемому пользователями каталогу ссылок на торрент-файлы, которые содержат только списки хеш-сумм.
Убедительная просьба с жалобами обращаться напрямую к пользователю, разместившему торрент файл.

Вверх