Loading...
Error

Сообщество / Community / Сезон 1 (1-25 серии из 25) (Тристрам Шапиро, Джо Руссо, Энтони Руссо) [2009 г., комедия, HDTVRip] DVO + Original

Статистика раздачи
Размер:  5,29 GB   |    Зарегистрирован:  1 год 2 месяца   |    Скачан:  3 раза

Полного источника не было: 4 дня

Сидов:  0  |  0 KB/s  ]   Личеров:  0  |  0 KB/s  ]

* - сиды/пиры с внешних источников

   
 
Автор Сообщение

older Пол:Муж

12-Сен-2015 06:45

Сообщество / Community / Сезон 1


Год выпуска: 2009
Жанр: комедия
Страна: США
Режиссер: Тристрам Шапиро, Джо Руссо, Энтони Руссо
В ролях: Джоэль МакХэйл (Joel McHale), Джиллиан Джейкобс (Gillian Jacobs), Дэнни Пуди (Danny Pudi), Ивет Николь Браун (Yvette Nicole Brown), Чеви Чейз (Chevy Chase), Дональд Гловер (Donald Glover), Элисон Бри (Alison Brie), Кен Йонг (Ken Jeong), Эрик Кристиан Олсен (Eric Christian Olsen), Джим Раш (Jim Rash)
Сюжет фильма:
Сериал рассказывает о студенческом сообществе, которое состоит из школьных лузеров, недавно разведенных домохозяек и пожилых людей, старающихся сохранить трезвый ум.

Качество видео: HDTVRip

Продолжительность: ~ 00:24:00
Формат: AVI
Видео: XviD, 624Х352, 1178 kbps
Аудио #1: русский, двухголосый закадровый [профессиональный], MP3 2.0, 256 kbps - Кубик в Кубе
Аудио #2: английский, оригинал, MP3 2.0, 128 kbps
01. Pilot
02. Spanish 101
03. Introduction to Film
04. Social Psychology
05. Advanced Criminal Law
06. Football, Feminism and You
07. Introduction to Statistics
08. Home Economics
09. Debate 109
10. Environmental Science
11. Politics of Human Sexuality
12. Comparitive Religion
13. Investigative Journalism
14. Interpretive Dance
15. Romantic Expressionism
16. Communication Studies
17. Physical Education
18. Basic Genealogy
19. Beginner Pottery
20. The Science of Illusion
21. Contemporary American Poultry
22. The Art of Discourse
23. Modern Warfare
24. English as a Second Language
25. Pascal's Triangle Revisited

Код:

Общее
Полное имя                               : \Community Season 1 Kybik v kybe\Community.s01e01.rus.eng.kybik.v.kybe.avi
Формат                                   : AVI
Формат/Информация                        : Audio Video Interleave
Размер файла                             : 278 Мбайт
Продолжительность                        : 24 м.
Режим общего битрейта                    : Переменный
Общий поток                              : 1607 Кбит/сек
Программа кодирования                    : VirtualDubMod 1.5.10.2 (build 2540/release)
Библиотека кодирования                   : VirtualDubMod build 2540/release

Видео
Идентификатор                            : 0
Формат                                   : MPEG-4 Visual
Профиль формата                          : Advanced Simple@L5
Параметр BVOP формата                    : 2
Параметр QPel формата                    : Нет
Параметр GMC формата                     : Без точки перехода
Параметр матрицы формата                 : Default (H.263)
Идентификатор кодека                     : XVID
Идентификатор кодека/Подсказка           : XviD
Продолжительность                        : 24 м.
Битрейт                                  : 1178 Кбит/сек
Ширина                                   : 624 пикселя
Высота                                   : 352 пикселя
Соотношение сторон                       : 16:9
Частота кадров                           : 23,976 кадра/сек
Цветовое пространство                    : YUV
Субдискретизация насыщенности            : 4:2:0
Битовая глубина                          : 8 бит
Тип развёртки                            : Прогрессивная
Метод сжатия                             : С потерями
Бит/(Пиксели*Кадры)                      : 0.224
Размер потока                            : 204 Мбайт (73%)
Библиотека кодирования                   : XviD 1.2.1 (UTC 2008-12-04)

Аудио #1
Идентификатор                            : 1
Формат                                   : MPEG Audio
Версия формата                           : Version 1
Профиль формата                          : Layer 3
Режим                                    : Joint stereo
Идентификатор кодека                     : 55
Идентификатор кодека/Подсказка           : MP3
Продолжительность                        : 24 м.
Вид битрейта                             : Постоянный
Битрейт                                  : 256 Кбит/сек
Каналы                                   : 2 канала
Частота                                  : 48,0 КГц
Метод сжатия                             : С потерями
Размер потока                            : 44,3 Мбайт (16%)
Выравнивание                             : Соединение по промежуткам
Продолжительность промежутка             : 42  мс. (1,00 видеокадр)
Время предзагрузки промежутка            : 504  мс.

Аудио #2
Идентификатор                            : 2
Формат                                   : MPEG Audio
Версия формата                           : Version 1
Профиль формата                          : Layer 3
Идентификатор кодека                     : 55
Идентификатор кодека/Подсказка           : MP3
Продолжительность                        : 24 м.
Вид битрейта                             : Переменный
Битрейт                                  : 128 Кбит/сек
Каналы                                   : 2 канала
Частота                                  : 48,0 КГц
Метод сжатия                             : С потерями
Размер потока                            : 27,0 Мбайт (10%)
Выравнивание                             : Соединение по промежуткам
Продолжительность промежутка             : 24  мс. (0,58 видеокадр)
Время предзагрузки промежутка            : 573  мс.

Автор релиза: ЛП
Перевод: Pala, Руслик&Ослик, Jeketeur, Божья коровка
Озвучка: Кубик в кубе
Релиз группы:
pic pic pic pic pic
Для увеличения картинки щелкните мышкой по превью

Этот торрент недоступен для скачивания без регистрации, однако доступен по публичной magnet-ссылке (источники с публичных трекеров). Перед использованием ссылки прочтите, пожалуйста Пользовательское соглашение, а также как можно дольше оставайтесь на раздаче! Для того, чтобы скачать сам торрент-файл (который видит больше источников), а также для того, чтобы поблагодарить релизера, вам необходимо зарегистрироваться. Если регистрироваться лень - вы можете также попробовать скачать релиз по нашим партнерским ссылкам ниже.

[underverse.su].t58111.torrent
Трекер: Зарегистрирован   [ 12.09.2015 06:45 ]  

Статус: проверено (by makkol at 12.09.2015 09:01)
Поблагодарили: пока никто не поблагодарил...
Тип торрента: публичный - доступные источники с открытых трекеров: 
Размер: 5,29 GB (занимает 1,21 DVDR, для записи нужно 2 болванки DVDR/RW)
 
 
Похожие темы
Форум Тема Автор Торрент Отв. Посл. сооб.
Зарубежные сериалы Сообщество / Community / Сезон 2 (1-24 серии из 24) (Тристрам Шапиро, Джо Руссо, Энтони Руссо) [2010 г., комедия, HDTVRip] DVO + Original older
23 | 2

0 | 365

2

12.09.2015 07:35

Зарубежные сериалы Сообщество / Community / Сезон 3 (1-22 серии из 22) (Тристрам Шапиро, Джо Руссо, Энтони Руссо) [2011 г., комедия, WEB-DLRip] DVO + Original older
28 | 6

0 | 368

2

12.09.2015 08:52

Зарубежные сериалы Сообщество / Community / Сезон 4 (1-13 серии из 13) (Тристрам Шапиро, Джо Руссо, Энтони Руссо) [2013 г., комедия, WEB-DLRip] DVO + Original older
1 | 0

0 | 374

2

12.09.2015 09:27

Зарубежные сериалы Сообщество / Community / Сезон 5 (1-13 серии из 13) ( Тристрам Шапиро, Джо Руссо, Энтони Руссо) [2014 г., комедия, WEB-DLRip] DVO + Original older
38 | 4

0 | 373

3

12.09.2015 09:56

Зарубежные сериалы Сообщество / Community / Сезон 6 (1-13 серии из 13) (Тристрам Шапиро, Джо Руссо, Энтони Руссо) [2015 г., комедия, WEB-DLRip] DVO + Original older
61 | 5

1 | 650

3

21.10.2015 07:58


Яндекс.Метрика powered by Sphinx


В Н И М А Н И Е
Сайт не распространяет и не хранит электронные версии произведений, а лишь бесплатно и без коммерческой выгоды (не требуя взамен платы,
SMS и т.д.) предоставляет доступ к создаваемому пользователями каталогу ссылок на торрент-файлы, которые содержат только списки хеш-сумм.
Убедительная просьба с жалобами обращаться напрямую к пользователю, разместившему торрент файл.

Вверх