Loading...
Error

Овечка Долли была злая и рано умерла (Алексей Пиманов) [2015 г., фантастика, комедия, приключения, WEB-DLRip]

Статистика раздачи
Размер:  1,45 GB   |    Зарегистрирован:  1 год 2 месяца   |    Скачан:  80 раз
Сидов:  1  |  0 KB/s  ]   Личеров:  0  |  0 KB/s  ]

* - сиды/пиры с внешних источников

   
 
Автор Сообщение

makkol Пол:Муж

11-Сен-2015 23:17

Овечка Долли была злая и рано умерла


Год выпуска: 2015
Жанр: фантастика, комедия, приключения
Производство: Россия [Пиманов Фильм]
Режиссер: Алексей Пиманов
В ролях: Данила Шевченко, Юлия Савичева, Виктор Сухоруков, Роман Полянский, Виктория Маслова, Борис Щербаков, Анна Шерлинг, Юлия Пожидаева, Антон Феоктистов, Ирина Ильинская
Сюжет фильма:
Главный герой — современный молодой человек Никита, студент МИФИ, в результате научного эксперимента попадает в прошлое, где ему предстоит встретить не только своих молодых родителей, но найти новых друзей и обрести настоящую любовь в лице студентки Маши. Эта встреча заставляет его по-другому посмотреть на свою жизнь. Однако Никита вдруг понимает, что начинает стремительно стареть и спастись он может только если вернется обратно — в свое время. Но сделать это оказалось не так просто…

  • Мировая премьера: 19 февраля 2015


Качество видео: WEB-DLRip

Продолжительность: 01:56:37
Формат: AVI
Видео: XviD, 720x304 (2.35:1), 25.000 fps, 1582 kbps
Аудио: русский, оригинал, AC3 2.0, 48 kHz, 192 kbps

Код:

General
Complete name : Овечка.Долли.была.злая.и.рано.умерла.2015.WEB-DLRip.avi
Format : AVI
Format/Info : Audio Video Interleave
File size : 1.45 GiB
Duration : 1h 56mn
Overall bit rate : 1 784 Kbps
Writing application : VirtualDubMod 1.5.10.2 (build 2540/release)
Writing library : VirtualDubMod build 2540/release

Video
ID : 0
Format : MPEG-4 Visual
Format profile : Advanced Simple@L5
Format settings, BVOP : 2
Format settings, QPel : No
Format settings, GMC : No warppoints
Format settings, Matrix : Default (MPEG)
Codec ID : XVID
Codec ID/Hint : XviD
Duration : 1h 56mn
Bit rate : 1 582 Kbps
Width : 720 pixels
Height : 304 pixels
Display aspect ratio : 2.35:1
Frame rate : 25.000 fps
Color space : YUV
Chroma subsampling : 4:2:0
Bit depth : 8 bits
Scan type : Progressive
Compression mode : Lossy
Bits/(Pixel*Frame) : 0.289
Stream size : 1.29 GiB (89%)
Writing library : XviD 1.2.1 (UTC 2008-12-04)

Audio
ID : 1
Format : AC-3
Format/Info : Audio Coding 3
Mode extension : CM (complete main)
Format settings, Endianness : Big
Codec ID : 2000
Duration : 1h 56mn
Bit rate mode : Constant
Bit rate : 192 Kbps
Channel(s) : 2 channels
Channel positions : Front: L R
Sampling rate : 48.0 KHz
Bit depth : 16 bits
Compression mode : Lossy
Stream size : 160 MiB (11%)
Alignment : Split accross interleaves
Interleave, duration : 40 ms (1.00 video frame)
Interleave, preload duration : 500 ms
picpicpicpicpic
Для увеличения картинки щелкните мышкой по превью

Этот торрент недоступен для скачивания без регистрации, однако доступен по публичной magnet-ссылке (источники с публичных трекеров). Перед использованием ссылки прочтите, пожалуйста Пользовательское соглашение, а также как можно дольше оставайтесь на раздаче! Для того, чтобы скачать сам торрент-файл (который видит больше источников), а также для того, чтобы поблагодарить релизера, вам необходимо зарегистрироваться. Если регистрироваться лень - вы можете также попробовать скачать релиз по нашим партнерским ссылкам ниже.

[underverse.su].t58103.torrent
Трекер: Зарегистрирован   [ 11.09.2015 23:17 ]  

Статус: проверено (by makkol at 12.09.2015 14:54)
Поблагодарили: 2 человека
Тип торрента: публичный - доступные источники с открытых трекеров: 
Размер: 1,45 GB (занимает 1/3 DVDR, для записи нужно 1 болванка DVDR/RW)
 
 
Похожие темы
Форум Тема Автор Торрент Отв. Посл. сооб.
Наше кино [HDDVDRip / BDRip / WEB-DL / HDTV 1080/720р] Овечка Долли была злая и рано умерла (Алексей Пиманов) [2015 г., фантастика, комедия, приключения, WEB-DL 720p] makkol
22 | 0

0 | 480

11

11.09.2015 23:32

Наше кино [HDDVDRip / BDRip / WEB-DL / HDTV 1080/720р] Овечка Долли была злая и рано умерла (Алексей Пиманов) [2015 г., фантастика, комедия, приключения, WEB-DL 1080p] makkol
72 | 0

0 | 712

45

11.09.2015 23:45

val.s.g Пол:Муж

28-Сен-2015 14:39

За долгое время первый по-русски душевный фильм. И пусть это сказка, но как на ней отдыхаешь. Игра актеров, и молодых, и со стажем заслуживает только восхищения. Большое спасибо съемочной группе; ну и особое спасибо автору релиза. :good:

Яндекс.Метрика powered by Sphinx


В Н И М А Н И Е
Сайт не распространяет и не хранит электронные версии произведений, а лишь бесплатно и без коммерческой выгоды (не требуя взамен платы,
SMS и т.д.) предоставляет доступ к создаваемому пользователями каталогу ссылок на торрент-файлы, которые содержат только списки хеш-сумм.
Убедительная просьба с жалобами обращаться напрямую к пользователю, разместившему торрент файл.

Вверх