Loading...
Error

Отель «Де Сад» / Hotel de Sade (Оман Дхас) [2013 г., ужасы, триллер, драма, DVDRip] VO

Статистика раздачи
Размер:  1,4 GB   |    Зарегистрирован:  1 год 2 месяца   |    Скачан:  4 раза

Полного источника не было: 7 месяцев

Сидов:  0  |  0 KB/s  ]   Личеров:  0  |  0 KB/s  ]

* - сиды/пиры с внешних источников

   
 
Автор Сообщение

makkol Пол:Муж

11-Сен-2015 15:34

Отель «Де Сад» / Hotel de Sade


Год выпуска: 2013
Жанр: ужасы, триллер, драма
Страна: Сингапур , Китай , Малайзия
Режиссер: Оман Дхас
В ролях: Фиш Саар, Лаура Ки, Уильям Лаванди, Джоан-Мари Сим, Найджел Тан, Дебра Тенг
Сюжет фильма:
Эрик думал, что он убил свою дочь вместо того, чтобы спасти ее от похитителей. Это приводит его в Китай, где он ищет утешение в боли и крови в отеле «Рай», в котором удовлетворяют любые плотские и непристойные желания.

Перевод: МЕГАПЫХАРЬ
Озвучивание: Васька Куролесов

Качество видео: DVDRip

Продолжительность: 01:40:25
Формат: AVI
Видео: XviD, 720x400 (16:9), 1798 kbps
Аудио: русский, любительский одноголосый закадровый, AC3 2.0, 192 kbps

Код:

General
Complete name : Hotel.de.Sade.2013_German_KypoJIecoB.avi
Format : AVI
Format/Info : Audio Video Interleave
File size : 1.40 GiB
Duration : 1h 40mn
Overall bit rate : 2 000 Kbps
Writing application : VirtualDubMod 1.5.10.2 (build 2540/release)
Writing library : VirtualDubMod build 2540/release

Video
ID : 0
Format : MPEG-4 Visual
Format profile : Advanced Simple@L5
Format settings, BVOP : 2
Format settings, QPel : No
Format settings, GMC : No warppoints
Format settings, Matrix : Default (H.263)
Codec ID : XVID
Codec ID/Hint : XviD
Duration : 1h 40mn
Bit rate : 1 798 Kbps
Width : 720 pixels
Height : 400 pixels
Display aspect ratio : 16:9
Frame rate : 23.976 fps
Color space : YUV
Chroma subsampling : 4:2:0
Bit depth : 8 bits
Scan type : Progressive
Compression mode : Lossy
Bits/(Pixel*Frame) : 0.260
Stream size : 1.26 GiB (90%)
Writing library : XviD 67

Audio
ID : 1
Format : AC-3
Format/Info : Audio Coding 3
Mode extension : CM (complete main)
Format settings, Endianness : Big
Codec ID : 2000
Duration : 1h 40mn
Bit rate mode : Constant
Bit rate : 192 Kbps
Channel(s) : 2 channels
Channel positions : Front: L R
Sampling rate : 48.0 KHz
Compression mode : Lossy
Stream size : 138 MiB (10%)
Alignment : Split accross interleaves
Interleave, duration : 42 ms (1.00 video frame)
Interleave, preload duration : 500 ms
Релиз от:

picpicpicpicpic
Для увеличения картинки щелкните мышкой по превью

Этот торрент недоступен для скачивания без регистрации, однако доступен по публичной magnet-ссылке (источники с публичных трекеров). Перед использованием ссылки прочтите, пожалуйста Пользовательское соглашение, а также как можно дольше оставайтесь на раздаче! Для того, чтобы скачать сам торрент-файл (который видит больше источников), а также для того, чтобы поблагодарить релизера, вам необходимо зарегистрироваться. Если регистрироваться лень - вы можете также попробовать скачать релиз по нашим партнерским ссылкам ниже.

[underverse.su].t58093.torrent
Трекер: Зарегистрирован   [ 11.09.2015 15:34 ]  

Статус: проверено (by makkol at 12.09.2015 11:10)
Поблагодарили: пока никто не поблагодарил...
Тип торрента: публичный - доступные источники с открытых трекеров: 
Размер: 1,4 GB (занимает 0,32 DVDR, для записи нужно 1 болванка DVDR/RW)
 
 

Яндекс.Метрика powered by Sphinx


В Н И М А Н И Е
Сайт не распространяет и не хранит электронные версии произведений, а лишь бесплатно и без коммерческой выгоды (не требуя взамен платы,
SMS и т.д.) предоставляет доступ к создаваемому пользователями каталогу ссылок на торрент-файлы, которые содержат только списки хеш-сумм.
Убедительная просьба с жалобами обращаться напрямую к пользователю, разместившему торрент файл.

Вверх