Loading...
Error

Родители / Parenthood / Сезон 2 (1-22 серии из 22) (Лоуренс Триллинг, Патрик Р. Норрис, Майкл Уивер) [2010 г., драма, комедия, WEB-DLRip] MVO + Original

Статистика раздачи
Размер:  8,6 GB   |    Зарегистрирован:  1 год 2 месяца   |    Скачан:  2 раза

Полного источника не было: 6 месяцев

Сидов:  0  |  0 KB/s  ]   Личеров:  0  |  0 KB/s  ]

* - сиды/пиры с внешних источников

   
 
Автор Сообщение

older Пол:Муж

11-Сен-2015 07:48

Родители / Parenthood / Сезон 2


Год выпуска: 2010
Жанр: драма, комедия
Страна: США
Режиссер: Лоуренс Триллинг, Патрик Р. Норрис, Майкл Уивер
В ролях: Саванна Пэйдж Рэй, Сара Рамос, Джой Брайант, Ивэн Шафран, Мэй Уитман, Майлс Хейзер, Макс Буркхолдер, Лорен Грэм, Бонни Беделиа, Молли Брэйди
Сюжет фильма:
Саре Брейверман с двумя детьми — дочерью Амбер и сыном Дрю из-за материальных трудностей пришлось переехать из Фресно в домик родителей в калифорнийском Беркли — отца Зика и матери Камилы, которые тоже испытывают сложности с финансами. Там до сих пор живут ее сестра с братьями — Джулия, Кросби и Адам, каждый из которых борется со своими собственными проблемами.

Качество видео: WEB-DLRip

Продолжительность: ~ 00:42:00
Формат: AVI
Видео: XviD, 656x368, 1056 kbps
Аудио #1: русский, многоголосый закадровый [профессиональный], MP3 2.0, 128 kbps - Diva Universal
Аудио #2: английский, оригинал, MP3 2.0, 128 kbps

Код:

Общее
Полное имя                               : \Parenthood Season 2 (Diva Universal)\Parenthood.s02e01.WEB-DLRip.avi
Формат                                   : AVI
Формат/Информация                        : Audio Video Interleave
Размер файла                             : 399 Мбайт
Продолжительность                        : 42 м.
Общий поток                              : 1326 Кбит/сек
Программа кодирования                    : VirtualDubMod 1.5.10.3 | www.virtualdub-fr.org || (build 2550/release)
Библиотека кодирования                   : VirtualDubMod build 2550/release

Видео
Идентификатор                            : 0
Формат                                   : MPEG-4 Visual
Профиль формата                          : Advanced Simple@L5
Параметр BVOP формата                    : 1
Параметр QPel формата                    : Нет
Параметр GMC формата                     : Без точки перехода
Параметр матрицы формата                 : Default (MPEG)
Идентификатор кодека                     : XVID
Идентификатор кодека/Подсказка           : XviD
Продолжительность                        : 42 м.
Битрейт                                  : 1056 Кбит/сек
Ширина                                   : 656 пикселей
Высота                                   : 368 пикселей
Соотношение сторон                       : 16:9
Частота кадров                           : 23,976 кадра/сек
Цветовое пространство                    : YUV
Субдискретизация насыщенности            : 4:2:0
Битовая глубина                          : 8 бит
Тип развёртки                            : Прогрессивная
Метод сжатия                             : С потерями
Бит/(Пиксели*Кадры)                      : 0.182
Размер потока                            : 318 Мбайт (80%)
Библиотека кодирования                   : XviD 1.2.1 (UTC 2008-12-04)

Аудио #1
Идентификатор                            : 1
Формат                                   : MPEG Audio
Версия формата                           : Version 1
Профиль формата                          : Layer 3
Режим                                    : Joint stereo
Расширение режима                        : MS Stereo
Идентификатор кодека                     : 55
Идентификатор кодека/Подсказка           : MP3
Продолжительность                        : 42 м.
Вид битрейта                             : Постоянный
Битрейт                                  : 128 Кбит/сек
Каналы                                   : 2 канала
Частота                                  : 48,0 КГц
Метод сжатия                             : С потерями
Размер потока                            : 38,6 Мбайт (10%)
Выравнивание                             : Соединение по промежуткам
Продолжительность промежутка             : 42  мс. (1,00 видеокадр)
Время предзагрузки промежутка            : 504  мс.
Библиотека кодирования                   : LAME3.98r
Настройки программы                      : -m j -V 4 -q 2 -lowpass 17 -b 128

Аудио #2
Идентификатор                            : 2
Формат                                   : MPEG Audio
Версия формата                           : Version 1
Профиль формата                          : Layer 3
Режим                                    : Joint stereo
Расширение режима                        : MS Stereo
Идентификатор кодека                     : 55
Идентификатор кодека/Подсказка           : MP3
Продолжительность                        : 42 м.
Вид битрейта                             : Постоянный
Битрейт                                  : 128 Кбит/сек
Каналы                                   : 2 канала
Частота                                  : 48,0 КГц
Метод сжатия                             : С потерями
Размер потока                            : 38,6 Мбайт (10%)
Выравнивание                             : Соединение по промежуткам
Продолжительность промежутка             : 42  мс. (1,00 видеокадр)
Время предзагрузки промежутка            : 504  мс.
Библиотека кодирования                   : LAME3.98r
Настройки программы                      : -m j -V 4 -q 2 -lowpass 17 -b 128

Автор релиза: Мосенька
Рип: Мосенька
Запись и работа со звуком: Baggio
Релиз группы:

picpicpicpicpic
Для увеличения картинки щелкните мышкой по превью

Этот торрент недоступен для скачивания без регистрации, однако доступен по публичной magnet-ссылке (источники с публичных трекеров). Перед использованием ссылки прочтите, пожалуйста Пользовательское соглашение, а также как можно дольше оставайтесь на раздаче! Для того, чтобы скачать сам торрент-файл (который видит больше источников), а также для того, чтобы поблагодарить релизера, вам необходимо зарегистрироваться. Если регистрироваться лень - вы можете также попробовать скачать релиз по нашим партнерским ссылкам ниже.

[underverse.su].t58087.torrent
Трекер: Зарегистрирован   [ 11.09.2015 07:48 ]  

Статус: проверено (by makkol at 11.09.2015 09:06)
Поблагодарили: пока никто не поблагодарил...
Тип торрента: публичный - доступные источники с открытых трекеров: 
Размер: 8,6 GB (занимает 1,97 DVDR, для записи нужно 2 болванки DVDR/RW)
 
 
Похожие темы
Форум Тема Автор Торрент Отв. Посл. сооб.
Зарубежные сериалы Родители / Parenthood / Сезон 1 (1-13 серии из 13) (Лоуренс Триллинг, Патрик Р. Норрис, Майкл Уивер) [2010 г., драма, комедия, WEB-DLRip] MVO + Original older
18 | 6

0 | 378

4

11.09.2015 06:51

Зарубежные сериалы Родители / Parenthood / Сезон 3 (1-18 серии из 18) (Лоуренс Триллинг, Патрик Р. Норрис, Майкл Уивер) [2011 г., драма, комедия, WEB-DLRip] MVO + Original older
4 | 0

0 | 343

1

11.09.2015 08:51


Яндекс.Метрика powered by Sphinx


В Н И М А Н И Е
Сайт не распространяет и не хранит электронные версии произведений, а лишь бесплатно и без коммерческой выгоды (не требуя взамен платы,
SMS и т.д.) предоставляет доступ к создаваемому пользователями каталогу ссылок на торрент-файлы, которые содержат только списки хеш-сумм.
Убедительная просьба с жалобами обращаться напрямую к пользователю, разместившему торрент файл.

Вверх