Loading...
Error

Викинги / Vikings / Сезоны 1-3 (29 серий из 29) (Кен Джиротти, Киаран Доннелли, Джефф Вулнаф) [2013-2015 г., боевик, драма, военный, история, WEB-DLRip] MVO (NewStudio) + Original

Статистика раздачи
Размер:  15,64 GB   |    Зарегистрирован:  1 год 2 месяца   |    Скачан:  19 раз

Полного источника не было: 6 дней

Сидов:  0  |  0 KB/s  ]   Личеров:  0  |  0 KB/s  ]

* - сиды/пиры с внешних источников

   
 
Автор Сообщение

older Пол:Муж

11-Сен-2015 05:56

Викинги / Vikings / Сезоны 1-3


Год выпуска: 2013-2015
Жанр: боевик, драма, военный, история
Страна: Ирландия , Канада
Режиссер: Кен Джиротти, Киаран Доннелли, Джефф Вулнаф
В ролях: Трэвис Фиммел, Клайв Стэнден, Кэтрин Уинник, Гэбриел Бирн, Джессалин Гилсиг, Густаф Скарсгард, Джефферсон Холл, Джордж Благден, Тадж Мерфи, Диармэйд Мурта, Нэйтан О`Тул, Руби О`Лири, Джон Кэвэна
Сюжет фильма:
Сериал рассказывает об отряде викингов Рагнара. Он восстал, чтобы стать королём племён викингов. Норвежская легенда гласит, что он был прямым потомком Одина, бога войны и воинов.

Качество видео: WEB-DLRip

Продолжительность: 29 x ~ 00:44:00
Формат: AVI
Видео: XviD, 720х400, 1531 kbps
Аудио #1: русский, многоголосый закадровый [профессиональный], MP3 2.0, 128-192 kbps
Аудио #2: английский, оригинал, MP3 2.0, 128-192 kbps

Код:

Общее
Полное имя                               : \Vikings.WEB-DLRip.*другой трекер*\Vikings.s01.WEBDLRip.*другой трекер*\Vikings.s01e01.WEBDLRip.*другой трекер*.avi
Формат                                   : AVI
Формат/Информация                        : Audio Video Interleave
Размер файла                             : 612 Мбайт
Продолжительность                        : 44 м.
Общий поток                              : 1929 Кбит/сек
Программа кодирования                    : VirtualDubMod 1.5.10.2 (build 2540/release)
Библиотека кодирования                   : VirtualDubMod build 2540/release

Видео
Идентификатор                            : 0
Формат                                   : MPEG-4 Visual
Профиль формата                          : Advanced Simple@L5
Параметр BVOP формата                    : 2
Параметр QPel формата                    : Нет
Параметр GMC формата                     : Без точки перехода
Параметр матрицы формата                 : Default (MPEG)
Идентификатор кодека                     : XVID
Идентификатор кодека/Подсказка           : XviD
Продолжительность                        : 44 м.
Битрейт                                  : 1531 Кбит/сек
Ширина                                   : 720 пикселей
Высота                                   : 400 пикселей
Соотношение сторон                       : 16:9
Частота кадров                           : 23,976 кадра/сек
Цветовое пространство                    : YUV
Субдискретизация насыщенности            : 4:2:0
Битовая глубина                          : 8 бит
Тип развёртки                            : Прогрессивная
Метод сжатия                             : С потерями
Бит/(Пиксели*Кадры)                      : 0.222
Размер потока                            : 486 Мбайт (79%)
Библиотека кодирования                   : XviD 65

Аудио #1
Идентификатор                            : 1
Формат                                   : MPEG Audio
Версия формата                           : Version 1
Профиль формата                          : Layer 3
Режим                                    : Joint stereo
Идентификатор кодека                     : 55
Идентификатор кодека/Подсказка           : MP3
Продолжительность                        : 44 м.
Вид битрейта                             : Постоянный
Битрейт                                  : 192 Кбит/сек
Каналы                                   : 2 канала
Частота                                  : 48,0 КГц
Метод сжатия                             : С потерями
Размер потока                            : 60,9 Мбайт (10%)
Выравнивание                             : Соединение по промежуткам
Продолжительность промежутка             : 42  мс. (1,00 видеокадр)
Время предзагрузки промежутка            : 504  мс.

Аудио #2
Идентификатор                            : 2
Формат                                   : MPEG Audio
Версия формата                           : Version 1
Профиль формата                          : Layer 3
Режим                                    : Joint stereo
Идентификатор кодека                     : 55
Идентификатор кодека/Подсказка           : MP3
Продолжительность                        : 44 м.
Вид битрейта                             : Постоянный
Битрейт                                  : 192 Кбит/сек
Каналы                                   : 2 канала
Частота                                  : 48,0 КГц
Метод сжатия                             : С потерями
Размер потока                            : 60,9 Мбайт (10%)
Выравнивание                             : Соединение по промежуткам
Продолжительность промежутка             : 42  мс. (1,00 видеокадр)
Время предзагрузки промежутка            : 504  мс.
Библиотека кодирования                   : LAME3.99r
Настройки программы                      : -m j -V 4 -q 2 -lowpass 18.6 -b 192

Код:

Общее
Полное имя                               : \Vikings.WEB-DLRip.*другой трекер*\Vikings.s02.WEBDLRip.*другой трекер*\Vikings.s02e01.WEBDLRip.*другой трекер*.avi
Формат                                   : AVI
Формат/Информация                        : Audio Video Interleave
Размер файла                             : 550 Мбайт
Продолжительность                        : 44 м.
Общий поток                              : 1732 Кбит/сек
Программа кодирования                    : VirtualDubMod 1.5.10.2 (build 2540/release)
Библиотека кодирования                   : VirtualDubMod build 2540/release

Видео
Идентификатор                            : 0
Формат                                   : MPEG-4 Visual
Профиль формата                          : Advanced Simple@L5
Параметр BVOP формата                    : 2
Параметр QPel формата                    : Нет
Параметр GMC формата                     : Без точки перехода
Параметр матрицы формата                 : Default (MPEG)
Идентификатор кодека                     : XVID
Идентификатор кодека/Подсказка           : XviD
Продолжительность                        : 44 м.
Битрейт                                  : 1462 Кбит/сек
Ширина                                   : 720 пикселей
Высота                                   : 400 пикселей
Соотношение сторон                       : 16:9
Частота кадров                           : 23,976 кадра/сек
Цветовое пространство                    : YUV
Субдискретизация насыщенности            : 4:2:0
Битовая глубина                          : 8 бит
Тип развёртки                            : Прогрессивная
Метод сжатия                             : С потерями
Бит/(Пиксели*Кадры)                      : 0.212
Размер потока                            : 464 Мбайт (84%)
Библиотека кодирования                   : XviD 64

Аудио #1
Идентификатор                            : 1
Формат                                   : MPEG Audio
Версия формата                           : Version 1
Профиль формата                          : Layer 3
Режим                                    : Joint stereo
Расширение режима                        : MS Stereo
Идентификатор кодека                     : 55
Идентификатор кодека/Подсказка           : MP3
Продолжительность                        : 44 м.
Вид битрейта                             : Постоянный
Битрейт                                  : 128 Кбит/сек
Каналы                                   : 2 канала
Частота                                  : 48,0 КГц
Метод сжатия                             : С потерями
Размер потока                            : 40,7 Мбайт (7%)
Выравнивание                             : Соединение по промежуткам
Продолжительность промежутка             : 42  мс. (1,00 видеокадр)
Время предзагрузки промежутка            : 504  мс.

Аудио #2
Идентификатор                            : 2
Формат                                   : MPEG Audio
Версия формата                           : Version 1
Профиль формата                          : Layer 3
Режим                                    : Joint stereo
Расширение режима                        : MS Stereo
Идентификатор кодека                     : 55
Идентификатор кодека/Подсказка           : MP3
Продолжительность                        : 44 м.
Вид битрейта                             : Постоянный
Битрейт                                  : 128 Кбит/сек
Каналы                                   : 2 канала
Частота                                  : 48,0 КГц
Метод сжатия                             : С потерями
Размер потока                            : 40,7 Мбайт (7%)
Выравнивание                             : Соединение по промежуткам
Продолжительность промежутка             : 42  мс. (1,00 видеокадр)
Время предзагрузки промежутка            : 504  мс.
Библиотека кодирования                   : LAME3.99r
Настройки программы                      : -m j -V 4 -q 2 -lowpass 17 -b 128

   

Код:

Общее
Полное имя                               : \Vikings.WEB-DLRip.*другой трекер*\Vikings.s03.WEBDLRip.*другой трекер*\Vikings.s03e01.WEBDLRip.Proper.*другой трекер*.avi
Формат                                   : AVI
Формат/Информация                        : Audio Video Interleave
Размер файла                             : 549 Мбайт
Продолжительность                        : 45 м.
Общий поток                              : 1690 Кбит/сек
Программа кодирования                    : VirtualDubMod 1.5.10.2 (build 2540/release)
Библиотека кодирования                   : VirtualDubMod build 2540/release

Видео
Идентификатор                            : 0
Формат                                   : MPEG-4 Visual
Профиль формата                          : Advanced Simple@L5
Параметр BVOP формата                    : 2
Параметр QPel формата                    : Нет
Параметр GMC формата                     : Без точки перехода
Параметр матрицы формата                 : Default (MPEG)
Идентификатор кодека                     : XVID
Идентификатор кодека/Подсказка           : XviD
Продолжительность                        : 45 м.
Битрейт                                  : 1420 Кбит/сек
Ширина                                   : 720 пикселей
Высота                                   : 400 пикселей
Соотношение сторон                       : 16:9
Частота кадров                           : 23,976 кадра/сек
Цветовое пространство                    : YUV
Субдискретизация насыщенности            : 4:2:0
Битовая глубина                          : 8 бит
Тип развёртки                            : Прогрессивная
Метод сжатия                             : С потерями
Бит/(Пиксели*Кадры)                      : 0.206
Размер потока                            : 462 Мбайт (84%)
Библиотека кодирования                   : XviD 64

Аудио #1
Идентификатор                            : 1
Формат                                   : MPEG Audio
Версия формата                           : Version 1
Профиль формата                          : Layer 3
Режим                                    : Joint stereo
Расширение режима                        : MS Stereo
Идентификатор кодека                     : 55
Идентификатор кодека/Подсказка           : MP3
Продолжительность                        : 45 м.
Вид битрейта                             : Постоянный
Битрейт                                  : 128 Кбит/сек
Каналы                                   : 2 канала
Частота                                  : 48,0 КГц
Метод сжатия                             : С потерями
Размер потока                            : 41,6 Мбайт (8%)
Выравнивание                             : Соединение по промежуткам
Продолжительность промежутка             : 42  мс. (1,00 видеокадр)
Время предзагрузки промежутка            : 504  мс.

Аудио #2
Идентификатор                            : 2
Формат                                   : MPEG Audio
Версия формата                           : Version 1
Профиль формата                          : Layer 3
Режим                                    : Joint stereo
Расширение режима                        : MS Stereo
Идентификатор кодека                     : 55
Идентификатор кодека/Подсказка           : MP3
Продолжительность                        : 45 м.
Вид битрейта                             : Постоянный
Битрейт                                  : 128 Кбит/сек
Каналы                                   : 2 канала
Частота                                  : 48,0 КГц
Метод сжатия                             : С потерями
Размер потока                            : 41,6 Мбайт (8%)
Выравнивание                             : Соединение по промежуткам
Продолжительность промежутка             : 42  мс. (1,00 видеокадр)
Время предзагрузки промежутка            : 504  мс.

   
Релиз группы:

picpicpicpicpic
Для увеличения картинки щелкните мышкой по превью

Этот торрент недоступен для скачивания без регистрации, однако доступен по публичной magnet-ссылке (источники с публичных трекеров). Перед использованием ссылки прочтите, пожалуйста Пользовательское соглашение, а также как можно дольше оставайтесь на раздаче! Для того, чтобы скачать сам торрент-файл (который видит больше источников), а также для того, чтобы поблагодарить релизера, вам необходимо зарегистрироваться. Если регистрироваться лень - вы можете также попробовать скачать релиз по нашим партнерским ссылкам ниже.

[underverse.su].t58083.torrent
Трекер: Зарегистрирован   [ 11.09.2015 05:56 ]  

Статус: проверено (by makkol at 11.09.2015 09:03)
Поблагодарили: 5 человек
Тип торрента: публичный - доступные источники с открытых трекеров: 
Размер: 15,64 GB (занимает 3,57 DVDR, для записи нужно 4 болванки DVDR/RW)
 
 
Похожие темы
Форум Тема Автор Торрент Отв. Посл. сооб.
Зарубежное кино [DVDRip, Low-Res HDRip, и т.д.] Викинги / Outlander (Ховард МакКейн) [2008 г., фантастика, боевик, приключения, BDRip] MVO + Original Доктор Ватсон
3 | 2

0 | 867

51

27.12.2012 17:27

T Зарубежное кино [DVDRip, Low-Res HDRip, и т.д.] Викинги / Northmen - A Viking Saga (Клаудио Фах) [2014 г., Боевик, Приключения, WEB-DLRip] Dub (RUS, iTunes Russia) Ведьмочка
7 | 0

0 | 871

40

01.01.2015 06:54

T Зарубежное кино [DVDRip, Low-Res HDRip, и т.д.] Викинги / Northmen - A Viking Saga (Клаудио Фах) [2014 г., Боевик, Приключения, WEB-DLRip-AVC] Dub (RUS, iTunes Russia) Ведьмочка
0 | 0

1 | 877

28

02.01.2015 00:56

T Зарубежное кино [DVDRip, Low-Res HDRip, и т.д.] Викинги / Northmen-A Viking Saga (Клаудио Фах) [20014 г., боевик, приключения, HDRip] Dub (iTunes) 90ytr90
3 | 0

0 | 853

7

21.02.2015 13:43

T Зарубежное кино [DVDRip, Low-Res HDRip, и т.д.] Викинги / Northmen-A Viking Saga (Клаудио Фах) [20014 г., боевик, приключения, HDRip] Dub (iTunes) + Original (Ger) 90ytr90
1 | 0

0 | 613

5

21.02.2015 13:49

T Зарубежное кино [DVDRip, Low-Res HDRip, и т.д.] Викинги / Northmen-A Viking Saga (Клаудио Фах) [20014 г., боевик, приключения, HDRip-AVC] Dub (iTunes) + Original (Eng) 90ytr90
11 | 3

0 | 649

7

21.02.2015 13:53

T Зарубежное кино [DVDRip, Low-Res HDRip, и т.д.] Викинги / Northmen-A Viking Saga (Клаудио Фах) [20014 г., боевик, приключения, HDRip] Dub (iTunes) 90ytr90
0 | 0

0 | 731

12

22.02.2015 11:49

Зарубежные сериалы Викинги / Vikings / серии 01-09 (9) (Киаран Доннелли, Йохан Ренк, Кен Джиротти) [2013 г., боевик, драма, военный, история, WEB-DLRip] MVO (BaibaKo) + Eng 90ytr90
0 | 1

0 | 2710

27

09.04.2013 11:37

Зарубежные сериалы Викинги / Vikings / Сезон 1 / Серии 1-9 (9) (Киаран Доннелли, Йохан Ренк) [2013 г., Боевик, драма, военный, история, WEBDLRip-AVC] MVO + Original Чертёнок
0 | 0

1 | 687

30

05.05.2013 07:17

Зарубежные сериалы Викинги / Vikings / сезон 2 / серии 01-10 (10) (Киаран Доннелли, Йохан Ренк, Кен Джиротти) [2013 г., боевик, драма, военный, история, WEB-DLRip] MVO (BaibaKo) + Eng 90ytr90
14 | 3

0 | 1983

36

06.03.2014 05:18


Яндекс.Метрика powered by Sphinx


В Н И М А Н И Е
Сайт не распространяет и не хранит электронные версии произведений, а лишь бесплатно и без коммерческой выгоды (не требуя взамен платы,
SMS и т.д.) предоставляет доступ к создаваемому пользователями каталогу ссылок на торрент-файлы, которые содержат только списки хеш-сумм.
Убедительная просьба с жалобами обращаться напрямую к пользователю, разместившему торрент файл.

Вверх