Loading...
Error

Ты - воплощение порока / Ты - отстой / You're The Worst / Сезон 2 (1-13 серии из 13) (Алекс Хардкасл, Джордан Вот-Робертс, Мэтт Шекман) [2015 г., комедия, мелодрама, WEB-DLRip] MVO + Original

Статистика раздачи
Размер:  4,04 GB   |    Зарегистрирован:  11 месяцев   |    Скачан:  4 раза

Полного источника не было: 1 месяц 4 дня

Сидов:  0  |  0 KB/s  ]   Личеров:  0  |  0 KB/s  ]

* - сиды/пиры с внешних источников

   
 
Автор Сообщение

older Пол:Муж

11-Сен-2015 04:54

Ты - воплощение порока / Ты - отстой / You're The Worst / Сезон 2


Год выпуска: 2015
Жанр: комедия, мелодрама
Страна: США
Режиссер: Алекс Хардкасл, Джордан Вот-Робертс, Мэтт Шекман
В ролях: Крис Гир, Джинджер Гонзага, Ая Кэш, Кетер Донохью, Брэндон Смит, Кулиа Прескотт, Каллард Харрис, Джонни 5, Линн А. Фридман
Сюжет фильма:
Комедийная любовная история о том, как два совершенно порочных человека влюбляются и пытаются совершить невозможное – завязать отношения.

Качество видео: WEB-DLRip

Продолжительность: ~ 00:23:00
Формат: AVI
Видео: XviD, 720х400, 1499 kbps
Аудио #1: русский, многоголосый закадровый [профессиональный], MP3 2.0, 192 kbps
Аудио #2: английский, оригинал, MP3 2.0, 192 kbps

Код:

Общее
Полное имя                               : \You're The Worst (S02) BBko\You're.the.Worst.s02e01.WEB-DLRip.XviD.Rus.Eng.BaibaKo.tv.avi
Формат                                   : AVI
Формат/Информация                        : Audio Video Interleave
Размер файла                             : 322 Мбайт
Продолжительность                        : 23 м.
Общий поток                              : 1897 Кбит/сек
Программа кодирования                    : VirtualDubMod 1.5.10.2 (build 2542/release)
Библиотека кодирования                   : VirtualDubMod build 2542/release

Видео
Идентификатор                            : 0
Формат                                   : MPEG-4 Visual
Профиль формата                          : Advanced Simple@L5
Параметр BVOP формата                    : 2
Параметр QPel формата                    : Нет
Параметр GMC формата                     : Без точки перехода
Параметр матрицы формата                 : Default (H.263)
Идентификатор кодека                     : XVID
Идентификатор кодека/Подсказка           : XviD
Продолжительность                        : 23 м.
Битрейт                                  : 1499 Кбит/сек
Ширина                                   : 720 пикселей
Высота                                   : 400 пикселей
Соотношение сторон                       : 16:9
Частота кадров                           : 23,976 кадра/сек
Цветовое пространство                    : YUV
Субдискретизация насыщенности            : 4:2:0
Битовая глубина                          : 8 бит
Тип развёртки                            : Прогрессивная
Метод сжатия                             : С потерями
Бит/(Пиксели*Кадры)                      : 0.217
Размер потока                            : 255 Мбайт (79%)
Библиотека кодирования                   : XviD 65

Аудио #1
Идентификатор                            : 1
Формат                                   : MPEG Audio
Версия формата                           : Version 1
Профиль формата                          : Layer 3
Режим                                    : Joint stereo
Расширение режима                        : MS Stereo
Идентификатор кодека                     : 55
Идентификатор кодека/Подсказка           : MP3
Продолжительность                        : 23 м.
Вид битрейта                             : Постоянный
Битрейт                                  : 192 Кбит/сек
Каналы                                   : 2 канала
Частота                                  : 48,0 КГц
Метод сжатия                             : С потерями
Размер потока                            : 32,6 Мбайт (10%)
Выравнивание                             : Соединение по промежуткам
Продолжительность промежутка             : 42  мс. (1,00 видеокадр)
Время предзагрузки промежутка            : 504  мс.

Аудио #2
Идентификатор                            : 2
Формат                                   : MPEG Audio
Версия формата                           : Version 1
Профиль формата                          : Layer 3
Режим                                    : Joint stereo
Расширение режима                        : MS Stereo
Идентификатор кодека                     : 55
Идентификатор кодека/Подсказка           : MP3
Продолжительность                        : 23 м.
Вид битрейта                             : Постоянный
Битрейт                                  : 192 Кбит/сек
Каналы                                   : 2 канала
Частота                                  : 48,0 КГц
Метод сжатия                             : С потерями
Размер потока                            : 32,6 Мбайт (10%)
Выравнивание                             : Соединение по промежуткам
Продолжительность промежутка             : 42  мс. (1,00 видеокадр)
Время предзагрузки промежутка            : 504  мс.

Внимание! Раздача ведётся путём добавления новых серий.
При каждом добавлении создаётся новый торрент. Чтобы начать докачку новой серии, пользователям необходимо сделать следующее:
1. Остановить скачивание,
2. Удалить старый торрент у себя из клиента (старые серии удалять не надо),
3. Скачать новый торрент и запустить его у себя в клиенте вместо старого, при этом указать клиенту путь в старую папку куда и должно происходить скачивание новых серий.
Ваш клиент при этом должен произвести хеширование (проверку) старой папки (если не производит сам - помогите ему сделать это), и будет докачивать только те серии которых у вас ещё нет. Старые серии при этом не удаляются, а продолжают раздаваться!
Если вы уже удалили старые серии, то предотвратить повторную закачку старых серий можно, отжав галочку в соответствующих местах при запуске нового торрента.
Релиз группы:

pic pic pic pic pic
Для увеличения картинки щелкните мышкой по превью


16.12.15. Раздача обновлена!
Добавлена 13, последняя серия. Сезон представлен полностью.
Перекачайте торрент файл!

Этот торрент недоступен для скачивания без регистрации, однако доступен по публичной magnet-ссылке (источники с публичных трекеров). Перед использованием ссылки прочтите, пожалуйста Пользовательское соглашение, а также как можно дольше оставайтесь на раздаче! Для того, чтобы скачать сам торрент-файл (который видит больше источников), а также для того, чтобы поблагодарить релизера, вам необходимо зарегистрироваться. Если регистрироваться лень - вы можете также попробовать скачать релиз по нашим партнерским ссылкам ниже.

[underverse.su].t58082.torrent
Трекер: Зарегистрирован   [ 16.12.2015 04:34 ]  

Статус: проверено (by makkol at 16.12.2015 07:58)
Поблагодарили: пока никто не поблагодарил...
Тип торрента: публичный - доступные источники с открытых трекеров: 
Размер: 4,04 GB (занимает 0,92 DVDR, для записи нужно 1 болванка DVDR/RW)
 
 
Похожие темы
Форум Тема Автор Торрент Отв. Посл. сооб.
Зарубежные сериалы Ты - воплощение порока / Ты - отстой / You're The Worst / Сезон 1 (1-10 серии из 10) (Алекс Хардкасл, Джордан Вот-Робертс, Мэтт Шекман) [2014 г., комедия, мелодрама, WEB-DLRip] MVO + Original older
61 | 14

0 | 456

9

11.09.2015 04:41



Последний раз редактировалось: older (16.12.2015 04:34), всего редактировалось 6 раз(а)

older Пол:Муж

25-Сен-2015 07:39

25.09.15. Раздача обновлена!
Добавлены 2-3 серии.
Перекачайте торрент файл!

older Пол:Муж

12-Окт-2015 17:55

Добавлены 4-5 серии.
12.10.15. Раздача обновлена!
Перекачайте торрент файл!

older Пол:Муж

18-Окт-2015 09:18

18.10.15. Раздача обновлена!
Добавлена 6 серия.
Перекачайте торрент файл!

older Пол:Муж

02-Ноя-2015 08:11

02.11.15. Раздача обновлена!
Добавлены 7-8 серии.
Перекачайте торрент файл!

older Пол:Муж

07-Ноя-2015 05:47

07.11.15. Раздача обновлена!
Добавлена 9 серия.
Перекачайте торрент файл!

older Пол:Муж

11-Дек-2015 11:58

11.12.15. Раздача обновлена!
Добавлены 10-12 серии.
Перекачайте торрент файл!

older Пол:Муж

16-Дек-2015 04:35

16.12.15. Раздача обновлена!
Добавлена 13, последняя серия. Сезон представлен полностью.
Перекачайте торрент файл!

Яндекс.Метрика powered by Sphinx


В Н И М А Н И Е
Сайт не распространяет и не хранит электронные версии произведений, а лишь бесплатно и без коммерческой выгоды (не требуя взамен платы,
SMS и т.д.) предоставляет доступ к создаваемому пользователями каталогу ссылок на торрент-файлы, которые содержат только списки хеш-сумм.
Убедительная просьба с жалобами обращаться напрямую к пользователю, разместившему торрент файл.

Вверх