Loading...
Error

Ты - воплощение порока / Ты - отстой / You're The Worst / Сезон 1 (1-10 серии из 10) (Алекс Хардкасл, Джордан Вот-Робертс, Мэтт Шекман) [2014 г., комедия, мелодрама, WEB-DLRip] MVO + Original

Статистика раздачи
Размер:  2,98 GB   |    Зарегистрирован:  1 год 2 месяца   |    Скачан:  9 раз

Полного источника не было: 1 месяц 1 день

Сидов:  0  |  0 KB/s  ]   Личеров:  0  |  0 KB/s  ]

* - сиды/пиры с внешних источников

   
 
Автор Сообщение

older Пол:Муж

11-Сен-2015 04:41

Ты - воплощение порока / Ты - отстой / You're The Worst / Сезон 1


Год выпуска: 2014
Жанр: комедия, мелодрама
Страна: США
Режиссер: Алекс Хардкасл, Джордан Вот-Робертс, Мэтт Шекман
В ролях: Крис Гир, Джинджер Гонзага, Ая Кэш, Кетер Донохью, Брэндон Смит, Кулиа Прескотт, Каллард Харрис, Джонни 5, Линн А. Фридман
Сюжет фильма:
Комедийная любовная история о том, как два совершенно порочных человека влюбляются и пытаются совершить невозможное — завязать отношения.

Качество видео: WEB-DLRip

Продолжительность: ~ 00:27:00
Формат: AVI
Видео: XviD, 720х400, 1503 kbps
Аудио #1: русский, многоголосый закадровый [профессиональный], MP3 2.0, 128 kbps
Аудио #2: английский, оригинал, MP3 2.0, 128 kbps

Код:

Общее
Полное имя                               : \You're.The.Worst.(s01).NS\You're.the.Worst.s01e01.WEBDLRip.*другой трекер*.avi
Формат                                   : AVI
Формат/Информация                        : Audio Video Interleave
Размер файла                             : 350 Мбайт
Продолжительность                        : 27 м.
Общий поток                              : 1773 Кбит/сек
Программа кодирования                    : VirtualDubMod 1.5.10.2 (build 2540/release)
Библиотека кодирования                   : VirtualDubMod build 2540/release

Видео
Идентификатор                            : 0
Формат                                   : MPEG-4 Visual
Профиль формата                          : Advanced Simple@L5
Параметр BVOP формата                    : 2
Параметр QPel формата                    : Нет
Параметр GMC формата                     : Без точки перехода
Параметр матрицы формата                 : Default (MPEG)
Идентификатор кодека                     : XVID
Идентификатор кодека/Подсказка           : XviD
Продолжительность                        : 27 м.
Битрейт                                  : 1503 Кбит/сек
Ширина                                   : 720 пикселей
Высота                                   : 400 пикселей
Соотношение сторон                       : 16:9
Частота кадров                           : 23,976 кадра/сек
Цветовое пространство                    : YUV
Субдискретизация насыщенности            : 4:2:0
Битовая глубина                          : 8 бит
Тип развёртки                            : Прогрессивная
Метод сжатия                             : С потерями
Бит/(Пиксели*Кадры)                      : 0.218
Размер потока                            : 297 Мбайт (85%)
Библиотека кодирования                   : XviD 64

Аудио #1
Идентификатор                            : 1
Формат                                   : MPEG Audio
Версия формата                           : Version 1
Профиль формата                          : Layer 3
Режим                                    : Joint stereo
Расширение режима                        : MS Stereo
Идентификатор кодека                     : 55
Идентификатор кодека/Подсказка           : MP3
Продолжительность                        : 27 м.
Вид битрейта                             : Постоянный
Битрейт                                  : 128 Кбит/сек
Каналы                                   : 2 канала
Частота                                  : 48,0 КГц
Метод сжатия                             : С потерями
Размер потока                            : 25,3 Мбайт (7%)
Выравнивание                             : Соединение по промежуткам
Продолжительность промежутка             : 42  мс. (1,00 видеокадр)
Время предзагрузки промежутка            : 504  мс.

Аудио #2
Идентификатор                            : 2
Формат                                   : MPEG Audio
Версия формата                           : Version 1
Профиль формата                          : Layer 3
Режим                                    : Joint stereo
Идентификатор кодека                     : 55
Идентификатор кодека/Подсказка           : MP3
Продолжительность                        : 27 м.
Вид битрейта                             : Постоянный
Битрейт                                  : 128 Кбит/сек
Каналы                                   : 2 канала
Частота                                  : 48,0 КГц
Метод сжатия                             : С потерями
Размер потока                            : 25,3 Мбайт (7%)
Выравнивание                             : Соединение по промежуткам
Продолжительность промежутка             : 42  мс. (1,00 видеокадр)
Время предзагрузки промежутка            : 504  мс.
Библиотека кодирования                   : LAME3.99r
Настройки программы                      : -m j -V 4 -q 2 -lowpass 17 -b 128

Релиз группы:

picpicpicpicpic
Для увеличения картинки щелкните мышкой по превью

Этот торрент недоступен для скачивания без регистрации, однако доступен по публичной magnet-ссылке (источники с публичных трекеров). Перед использованием ссылки прочтите, пожалуйста Пользовательское соглашение, а также как можно дольше оставайтесь на раздаче! Для того, чтобы скачать сам торрент-файл (который видит больше источников), а также для того, чтобы поблагодарить релизера, вам необходимо зарегистрироваться. Если регистрироваться лень - вы можете также попробовать скачать релиз по нашим партнерским ссылкам ниже.

[underverse.su].t58081.torrent
Трекер: Зарегистрирован   [ 11.09.2015 04:41 ]  

Статус: проверено (by makkol at 11.09.2015 08:58)
Поблагодарили: пока никто не поблагодарил...
Тип торрента: публичный - доступные источники с открытых трекеров: 
Размер: 2,98 GB (занимает 0,68 DVDR, для записи нужно 1 болванка DVDR/RW)
 
 
Похожие темы
Форум Тема Автор Торрент Отв. Посл. сооб.
Зарубежные сериалы Ты - воплощение порока / Ты - отстой / You're The Worst / Сезон 2 (1-13 серии из 13) (Алекс Хардкасл, Джордан Вот-Робертс, Мэтт Шекман) [2015 г., комедия, мелодрама, WEB-DLRip] MVO + Original older
22 | 13

7 | 1598

4

16.12.2015 04:35


Яндекс.Метрика powered by Sphinx


В Н И М А Н И Е
Сайт не распространяет и не хранит электронные версии произведений, а лишь бесплатно и без коммерческой выгоды (не требуя взамен платы,
SMS и т.д.) предоставляет доступ к создаваемому пользователями каталогу ссылок на торрент-файлы, которые содержат только списки хеш-сумм.
Убедительная просьба с жалобами обращаться напрямую к пользователю, разместившему торрент файл.

Вверх