Loading...
Error

Барбекю / Barbecue (Эрик Лавэн) [2014 г., комедия, HDRip] Dub

Статистика раздачи
Размер:  1,46 GB   |    Зарегистрирован:  1 год 2 месяца   |    Скачан:  21 раз

Полного источника не было: 2 дня 2 часа

Сидов:  0  |  0 KB/s  ]   Личеров:  0  |  0 KB/s  ]

* - сиды/пиры с внешних источников

   
 
Автор Сообщение

makkol Пол:Муж

10-Сен-2015 23:03

Барбекю / Barbecue


Год выпуска: 2014
Жанр: комедия
Производство: Франция [Same Player, StudioCanal, TF1 Films Production See]
Режиссер: Эрик Лавэн
В ролях: Ламбер Вильсон, Франк Дюбоск, Флоренс Форести, Гийом де Тонкедек, Лионель Абелански, Жером Коммандёр, Софи Дюэз, Лисиан Мейс, Валери Крузе, Лукас Лавэн
Сюжет фильма:
Несмотря на то, что всю жизнь Антуан следил за своим здоровьем, на его пятидесятилетие у него случается инфаркт. Все врачи говорят, что теперь ему нужно быть более осторожным. Но ведь он и так всегда был острожным! Он решает, что ему нужна встряска, и намерен поменять свою жизнь кардинальным образом.

  • Мировая премьера: 1 апреля 2014


Качество видео: HDRip

Продолжительность: 01:37:33
Формат: AVI
Видео: XviD, 720x384 (1.85:1), 24.000 fps, 1938 kbps
Аудио: русский, дублированный (SDI media), AC3 2.0, 48 kHz, 192 kbps

Код:

Общее
Полное имя                               : Barbeku.2014.P.HDRip.avi
Формат                                   : AVI
Формат/Информация                        : Audio Video Interleave
Размер файла                             : 1,46 Гбайт
Продолжительность                        : 1 ч. 37 м.
Общий поток                              : 2140 Кбит/сек
Программа кодирования                    : VirtualDubMod 1.5.10.2 (build 2540/release)
Библиотека кодирования                   : VirtualDubMod build 2540/release

Видео
Идентификатор                            : 0
Формат                                   : MPEG-4 Visual
Профиль формата                          : Advanced Simple@L5
Параметр BVOP формата                    : 2
Параметр QPel формата                    : Нет
Параметр GMC формата                     : Без точки перехода
Параметр матрицы формата                 : Default (MPEG)
Идентификатор кодека                     : XVID
Идентификатор кодека/Подсказка           : XviD
Продолжительность                        : 1 ч. 37 м.
Битрейт                                  : 1938 Кбит/сек
Ширина                                   : 720 пикселей
Высота                                   : 384 пикселя
Соотношение сторон                       : 1,85:1
Частота кадров                           : 24,000 кадра/сек
Цветовое пространство                    : YUV
Субдискретизация насыщенности            : 4:2:0
Битовая глубина                          : 8 бит
Тип развёртки                            : Прогрессивная
Метод сжатия                             : С потерями
Бит/(Пиксели*Кадры)                      : 0.292
Размер потока                            : 1,32 Гбайт (91%)
Библиотека кодирования                   : XviD 1.2.1 (UTC 2008-12-04)

Аудио
Идентификатор                            : 1
Формат                                   : AC-3
Формат/Информация                        : Audio Coding 3
Расширение режима                        : CM (complete main)
Параметр Endianness формата              : Big
Идентификатор кодека                     : 2000
Продолжительность                        : 1 ч. 37 м.
Вид битрейта                             : Постоянный
Битрейт                                  : 192 Кбит/сек
Каналы                                   : 2 канала
Расположение каналов                     : Front: L R
Частота                                  : 48,0 КГц
Метод сжатия                             : С потерями
Размер потока                            : 134 Мбайт (9%)
Выравнивание                             : Разделение по промежуткам
Продолжительность промежутка             : 42  мс. (1,00 видеокадр)
Время предзагрузки промежутка            : 500  мс.
picpicpicpicpic
Для увеличения картинки щелкните мышкой по превью

Этот торрент недоступен для скачивания без регистрации, однако доступен по публичной magnet-ссылке (источники с публичных трекеров). Перед использованием ссылки прочтите, пожалуйста Пользовательское соглашение, а также как можно дольше оставайтесь на раздаче! Для того, чтобы скачать сам торрент-файл (который видит больше источников), а также для того, чтобы поблагодарить релизера, вам необходимо зарегистрироваться. Если регистрироваться лень - вы можете также попробовать скачать релиз по нашим партнерским ссылкам ниже.

[underverse.su].t58075.torrent
Трекер: Зарегистрирован   [ 10.09.2015 23:03 ]  

Статус: проверено (by makkol at 11.09.2015 14:13)
Поблагодарили: пока никто не поблагодарил...
Тип торрента: публичный - доступные источники с открытых трекеров: 
Размер: 1,46 GB (занимает 1/3 DVDR, для записи нужно 1 болванка DVDR/RW)
 
 
Похожие темы
Форум Тема Автор Торрент Отв. Посл. сооб.
Зарубежное кино [HDDVDRip / BDRip / WEB-DL / HDTV 1080/720р] Барбекю / Barbecue (Эрик Лавэн) [2014 г., комедия, BDRip 720p] Dub + Original makkol
3 | 0

0 | 188

4

10.09.2015 23:15

Зарубежное кино [HDDVDRip / BDRip / WEB-DL / HDTV 1080/720р] Барбекю / Barbecue (Эрик Лавэн) [2014 г., комедия, BDRip 1080p] Dub + Original makkol
12 | 0

0 | 274

8

10.09.2015 23:27


Яндекс.Метрика powered by Sphinx


В Н И М А Н И Е
Сайт не распространяет и не хранит электронные версии произведений, а лишь бесплатно и без коммерческой выгоды (не требуя взамен платы,
SMS и т.д.) предоставляет доступ к создаваемому пользователями каталогу ссылок на торрент-файлы, которые содержат только списки хеш-сумм.
Убедительная просьба с жалобами обращаться напрямую к пользователю, разместившему торрент файл.

Вверх