Loading...
Error

Две девицы на мели / 2 Broke Girls / Сезон 4 (1-22 серии из 22) (Дон Скардино, Фред Сэвэдж, Фил Льюис) [2014 г., комедия, HDTVRip] MVO

Статистика раздачи
Размер:  5,09 GB   |    Зарегистрирован:  1 год 2 месяца   |    Скачан:  3 раза

Полного источника не было: 3 дня

Сидов:  0  |  0 KB/s  ]   Личеров:  0  |  0 KB/s  ]

* - сиды/пиры с внешних источников

   
 
Автор Сообщение

older Пол:Муж

10-Сен-2015 19:09

Две девицы на мели / 2 Broke Girls / Сезон 4


Год выпуска: 2014
Жанр: комедия
Страна: США
Режиссер: Дон Скардино, Фред Сэвэдж, Фил Льюис
В ролях: Кэт Деннингс /Kat Dennings/ (Макс), Бет Берс /Beth Behrs/ (Кэролайн), Мэтью Мой /Matthew Moy/(Хан Ли), Джонатан Кайт /Jonathan Kite/ (Олег), Гаррет Моррис /Garrett Morris/ (Эрл)
Сюжет фильма:
Комедия о двух девушках, которые работают официантками в забегаловке, и которых объединяет общая мечта — открыть успешный бизнес. Конечно, как только они найдут деньги для этого. Колкая, знающая жизнь Макс работает на двух работах только чтобы свести концы с концами. Одна из этих работ — ночная смена в ретро-закусочной Вильямсбург. Утонченная Кэролайн — бывшая принцесса с трастовым фондом, которой настолько не повезло, что волей-неволей пришлось стать официанткой.

Качество видео: HDTVRip

Продолжительность: ~ 00:21:00
Формат: AVI
Видео: XviD, 720х400, 1403 kbps
Аудио: русский, многоголосый закадровый [любительский], MP3 2.0, 128 kbps - F-TRAIN
Эпизод 01 - "Проблемы с Реалити-шоу"
Эпизод 02 - "Лицо Ди-Джея"
Эпизод 03 - "Детство не включено"
Эпизод 04 - "Вязаный велосипед"
Эпизод 05 - "Брэнд"
Эпизод 06 - "Квартира полная моделей"
Эпизод 07 - "Кредит на Рождество"
Эпизод 08 - "Фабрика Асса"
Эпизод 09 - "Ламборгини из прошлого"
Эпизод 10 - "Катастрофа с переездом"
Эпизод 11 - "Кольца преткновения"
Эпизод 12 - "Разборки"
Эпизод 13 - "Грязнули"
Эпизод 14 - "Заложники кексов"
Эпизод 15 - "Толстосум"
Эпизод 16 - "Ниже нуля"
Эпизод 17 - "Случки в улете"
Эпизод 18 - "О вкусах спорят"
Эпизод 19 - "Ирландский Кокопаффс"
Эпизод 20 - "Детская проблема"
Эпизод 21 - "Решетка ожиданий"
Эпизод 22 - "Чужой филиал"

Код:

Общее
Полное имя                               : \2 Broke Girls - Season 4 (F-TRAIN)\2.broke.girls.s04e01.[f-train].rus.avi
Формат                                   : AVI
Формат/Информация                        : Audio Video Interleave
Размер файла                             : 240 Мбайт
Продолжительность                        : 21 м.
Общий поток                              : 1540 Кбит/сек
Программа кодирования                    : VirtualDubMod 1.5.10.2 (build 2540/release)
Библиотека кодирования                   : VirtualDubMod build 2540/release

Видео
Идентификатор                            : 0
Формат                                   : MPEG-4 Visual
Профиль формата                          : Advanced Simple@L5
Параметр BVOP формата                    : 1
Параметр QPel формата                    : Нет
Параметр GMC формата                     : Без точки перехода
Параметр матрицы формата                 : Default (MPEG)
Идентификатор кодека                     : XVID
Идентификатор кодека/Подсказка           : XviD
Продолжительность                        : 21 м.
Битрейт                                  : 1403 Кбит/сек
Ширина                                   : 720 пикселей
Высота                                   : 400 пикселей
Соотношение сторон                       : 16:9
Частота кадров                           : 23,976 кадра/сек
Цветовое пространство                    : YUV
Субдискретизация насыщенности            : 4:2:0
Битовая глубина                          : 8 бит
Тип развёртки                            : Прогрессивная
Метод сжатия                             : С потерями
Бит/(Пиксели*Кадры)                      : 0.203
Размер потока                            : 219 Мбайт (91%)
Библиотека кодирования                   : XviD 1.2.1 (UTC 2008-12-04)

Аудио
Идентификатор                            : 1
Формат                                   : MPEG Audio
Версия формата                           : Version 1
Профиль формата                          : Layer 3
Режим                                    : Joint stereo
Расширение режима                        : MS Stereo
Идентификатор кодека                     : 55
Идентификатор кодека/Подсказка           : MP3
Продолжительность                        : 21 м.
Вид битрейта                             : Постоянный
Битрейт                                  : 128 Кбит/сек
Каналы                                   : 2 канала
Частота                                  : 48,0 КГц
Метод сжатия                             : С потерями
Размер потока                            : 20,0 Мбайт (8%)
Выравнивание                             : Разделение по промежуткам
Продолжительность промежутка             : 42  мс. (1,00 видеокадр)
Время предзагрузки промежутка            : 500  мс.

Перевод: Liana (1-15, 17-18, 20-22), schemer (16, 19)
Озвучивание: Liana, Трина Дубовицкая, schemer, Cuba77
Работа с видео: OgreS2009 (1-14)
Релиз группы:

picpicpicpicpic
Для увеличения картинки щелкните мышкой по превью

Этот торрент недоступен для скачивания без регистрации, однако доступен по публичной magnet-ссылке (источники с публичных трекеров). Перед использованием ссылки прочтите, пожалуйста Пользовательское соглашение, а также как можно дольше оставайтесь на раздаче! Для того, чтобы скачать сам торрент-файл (который видит больше источников), а также для того, чтобы поблагодарить релизера, вам необходимо зарегистрироваться. Если регистрироваться лень - вы можете также попробовать скачать релиз по нашим партнерским ссылкам ниже.

[underverse.su].t58064.torrent
Трекер: Зарегистрирован   [ 10.09.2015 19:09 ]  

Статус: проверено (by makkol at 11.09.2015 08:38)
Поблагодарили: пока никто не поблагодарил...
Тип торрента: публичный - доступные источники с открытых трекеров: 
Размер: 5,09 GB (занимает 1,16 DVDR, для записи нужно 2 болванки DVDR/RW)
 
 
Похожие темы
Форум Тема Автор Торрент Отв. Посл. сооб.
Зарубежные сериалы Две девицы на мели / 2 Broke Girls / Сезон 1 (1-24 серии из 24) (Дон Скардино, Фред Сэвэдж, Фил Льюис) [2011 г., комедия, HDTVRip] Dub + Original older
60 | 14

0 | 423

5

10.09.2015 18:06

Зарубежные сериалы Две девицы на мели / 2 Broke Girls / Сезон 2 (1-24 серии из 24) (Дон Скардино, Фред Сэвэдж, Фил Льюис) [2012 г., комедия, WEB-DLRip] Dub + Original older
45 | 6

0 | 758

3

10.09.2015 18:20

Зарубежные сериалы Две девицы на мели / 2 Broke Girls / Сезон 3 (1-24 серии из 24) (Дон Скардино, Фред Сэвэдж, Фил Льюис) [2013 г., комедия, WEB-DLRip] MVO older
1 | 0

0 | 408

4

10.09.2015 18:50


Яндекс.Метрика powered by Sphinx


В Н И М А Н И Е
Сайт не распространяет и не хранит электронные версии произведений, а лишь бесплатно и без коммерческой выгоды (не требуя взамен платы,
SMS и т.д.) предоставляет доступ к создаваемому пользователями каталогу ссылок на торрент-файлы, которые содержат только списки хеш-сумм.
Убедительная просьба с жалобами обращаться напрямую к пользователю, разместившему торрент файл.

Вверх