Loading...
Error

Две девицы на мели / 2 Broke Girls / Сезон 3 (1-24 серии из 24) (Дон Скардино, Фред Сэвэдж, Фил Льюис) [2013 г., комедия, WEB-DLRip] MVO

Статистика раздачи
Размер:  5,57 GB   |    Зарегистрирован:  1 год 2 месяца   |    Скачан:  4 раза

Полного источника не было: 2 месяца 8 дней

Сидов:  0  |  0 KB/s  ]   Личеров:  0  |  0 KB/s  ]

* - сиды/пиры с внешних источников

   
 
Автор Сообщение

older Пол:Муж

10-Сен-2015 18:50

Две девицы на мели / 2 Broke Girls / Сезон 3


Год выпуска: 2013
Жанр: комедия
Страна: США
Режиссер: Дон Скардино, Фред Сэвэдж, Фил Льюис
В ролях: Кэт Деннингс /Kat Dennings/ (Макс), Бет Берс /Beth Behrs/ (Кэролайн), Мэтью Мой /Matthew Moy/(Хан Ли), Джонатан Кайт /Jonathan Kite/ (Олег), Гаррет Моррис /Garrett Morris/ (Эрл)
Сюжет фильма:
Комедия о двух девушках, которые работают официантками в забегаловке, и которых объединяет общая мечта — открыть успешный бизнес. Конечно, как только они найдут деньги для этого. Колкая, знающая жизнь Макс работает на двух работах только чтобы свести концы с концами. Одна из этих работ — ночная смена в ретро-закусочной Вильямсбург. Утонченная Кэролайн — бывшая принцесса с трастовым фондом, которой настолько не повезло, что волей-неволей пришлось стать официанткой.

Качество видео: WEB-DLRip

Продолжительность: ~ 00:21:00
Формат: AVI
Видео: XviD, 720х400, 1402 kbps
Аудио: русский, многоголосый закадровый [любительский], MP3 2.0, 128 kbps - F-TRAIN
Эпизод 01 - "Прохладное начало"
Эпизод 02 - "Кикстартер"
Эпизод 03 - "Киса киса, шлеп шлеп"
Эпизод 04 - "Кофе-машина"
Эпизод 05 - "Крупышки"
Эпизод 06 - "Пропащая наволочка"
Эпизод 07 - "Девушка для Хана"
Эпизод 08 - "Та самая дыра"
Эпизод 09 - "Кондитерское *мурзилка*"
Эпизод 10 - "Первый день в школе"
Эпизод 11 - "Жизнь после смерти"
Эпизод 12 - "Французский поцелуй"
Эпизод 13 - "Магия большого зада"
Эпизод 14 - "Секс в мусорке"
Эпизод 15 - "Глазурь с любовью"
Эпизод 16 - "Банкомат"
Эпизод 17 - "Ночевка с женатиком"
Эпизод 18 - "На грани смерти"
Эпизод 19 - "Ирландские поцелуи"
Эпизод 20 - "Родители с деньгами"
Эпизод 21 - "Свадебный торт"
Эпизод 22 - "Продление аренды"
Эпизод 23 - "Легкие деньги"
Эпизод 24 - "Выпускной"

Код:

Общее
Полное имя                               : \2 Broke Girls - Season 3 (F-TRAIN)\2.broke.girls.s03e01.[f-train].rus.avi
Формат                                   : AVI
Формат/Информация                        : Audio Video Interleave
Размер файла                             : 238 Мбайт
Продолжительность                        : 21 м.
Общий поток                              : 1540 Кбит/сек
Программа кодирования                    : VirtualDubMod 1.5.10.2 (build 2540/release)
Библиотека кодирования                   : VirtualDubMod build 2540/release

Видео
Идентификатор                            : 0
Формат                                   : MPEG-4 Visual
Профиль формата                          : Advanced Simple@L5
Параметр BVOP формата                    : 1
Параметр QPel формата                    : Нет
Параметр GMC формата                     : Без точки перехода
Параметр матрицы формата                 : Default (MPEG)
Идентификатор кодека                     : XVID
Идентификатор кодека/Подсказка           : XviD
Продолжительность                        : 21 м.
Битрейт                                  : 1402 Кбит/сек
Ширина                                   : 720 пикселей
Высота                                   : 400 пикселей
Соотношение сторон                       : 16:9
Частота кадров                           : 23,976 кадра/сек
Цветовое пространство                    : YUV
Субдискретизация насыщенности            : 4:2:0
Битовая глубина                          : 8 бит
Тип развёртки                            : Прогрессивная
Метод сжатия                             : С потерями
Бит/(Пиксели*Кадры)                      : 0.203
Размер потока                            : 217 Мбайт (91%)
Библиотека кодирования                   : XviD 1.2.1 (UTC 2008-12-04)

Аудио
Идентификатор                            : 1
Формат                                   : MPEG Audio
Версия формата                           : Version 1
Профиль формата                          : Layer 3
Режим                                    : Joint stereo
Расширение режима                        : MS Stereo
Идентификатор кодека                     : 55
Идентификатор кодека/Подсказка           : MP3
Продолжительность                        : 21 м.
Вид битрейта                             : Постоянный
Битрейт                                  : 128 Кбит/сек
Каналы                                   : 2 канала
Частота                                  : 48,0 КГц
Метод сжатия                             : С потерями
Размер потока                            : 19,8 Мбайт (8%)
Выравнивание                             : Разделение по промежуткам
Продолжительность промежутка             : 42  мс. (1,00 видеокадр)
Время предзагрузки промежутка            : 500  мс.
Библиотека кодирования                   : LAME3.98.2

Перевод: Liana
Озвучивание: Liana, Трина Дубовицкая, schemer, Cuba77
Работа с видео: OgreS2009
Релиз группы:

picpicpicpicpic
Для увеличения картинки щелкните мышкой по превью

Этот торрент недоступен для скачивания без регистрации, однако доступен по публичной magnet-ссылке (источники с публичных трекеров). Перед использованием ссылки прочтите, пожалуйста Пользовательское соглашение, а также как можно дольше оставайтесь на раздаче! Для того, чтобы скачать сам торрент-файл (который видит больше источников), а также для того, чтобы поблагодарить релизера, вам необходимо зарегистрироваться. Если регистрироваться лень - вы можете также попробовать скачать релиз по нашим партнерским ссылкам ниже.

[underverse.su].t58063.torrent
Трекер: Зарегистрирован   [ 10.09.2015 18:50 ]  

Статус: проверено (by makkol at 11.09.2015 08:36)
Поблагодарили: пока никто не поблагодарил...
Тип торрента: публичный - доступные источники с открытых трекеров: 
Размер: 5,57 GB (занимает 1,27 DVDR, для записи нужно 2 болванки DVDR/RW)
 
 
Похожие темы
Форум Тема Автор Торрент Отв. Посл. сооб.
Зарубежные сериалы Две девицы на мели / 2 Broke Girls / Сезон 1 (1-24 серии из 24) (Дон Скардино, Фред Сэвэдж, Фил Льюис) [2011 г., комедия, HDTVRip] Dub + Original older
58 | 20

0 | 420

5

10.09.2015 18:06

Зарубежные сериалы Две девицы на мели / 2 Broke Girls / Сезон 2 (1-24 серии из 24) (Дон Скардино, Фред Сэвэдж, Фил Льюис) [2012 г., комедия, WEB-DLRip] Dub + Original older
64 | 10

0 | 750

3

10.09.2015 18:20

Зарубежные сериалы Две девицы на мели / 2 Broke Girls / Сезон 4 (1-22 серии из 22) (Дон Скардино, Фред Сэвэдж, Фил Льюис) [2014 г., комедия, HDTVRip] MVO older
5 | 3

0 | 454

3

10.09.2015 19:09


Яндекс.Метрика powered by Sphinx


В Н И М А Н И Е
Сайт не распространяет и не хранит электронные версии произведений, а лишь бесплатно и без коммерческой выгоды (не требуя взамен платы,
SMS и т.д.) предоставляет доступ к создаваемому пользователями каталогу ссылок на торрент-файлы, которые содержат только списки хеш-сумм.
Убедительная просьба с жалобами обращаться напрямую к пользователю, разместившему торрент файл.

Вверх