Loading...
Error

Две девицы на мели / 2 Broke Girls / Сезон 2 (1-24 серии из 24) (Дон Скардино, Фред Сэвэдж, Фил Льюис) [2012 г., комедия, WEB-DLRip] Dub + Original

Статистика раздачи
Размер:  5,84 GB   |    Зарегистрирован:  1 год 2 месяца   |    Скачан:  3 раза

Полного источника не было: 8 часов

Сидов:  0  |  0 KB/s  ]   Личеров:  0  |  0 KB/s  ]

* - сиды/пиры с внешних источников

   
 
Автор Сообщение

older Пол:Муж

10-Сен-2015 18:20

Две девицы на мели / 2 Broke Girls / Сезон 2


Год выпуска: 2012
Жанр: комедия
Страна: США
Режиссер: Дон Скардино, Фред Сэвэдж, Фил Льюис
В ролях: Кэт Деннингс, Бет Берс, Гаррет Моррис, Джонатан Кайт, Мэттью Мой, Дженнифер Кулидж, Ник Зано
Сюжет фильма:
Комедия о двух девушках, которые работают официантками в забегаловке, и которых объединяет общая мечта — открыть успешный бизнес. Конечно, как только они найдут деньги для этого. Колкая, знающая жизнь Макс работает на двух работах только чтобы свести концы с концами. Одна из этих работ — ночная смена в ретро-закусочной Вильямсбург. Утонченная Кэролайн — бывшая принцесса с трастовым фондом, которой настолько не повезло, что волей-неволей пришлось стать официанткой.

Качество видео: WEB-DLRip

Продолжительность: ~ 00:21:00
Формат: AVI
Видео: XviD, 720х400, 1327 kbps
Аудио #1: русский, дублированный, MP3 2.0, 128 kbps - Paramount Comedy
Аудио #2: английский, оригинал, MP3 2.0, 128 kbps

Код:

Общее
Полное имя                               : \Две девицы на мели Сезон 2 (Paramount comedy)\2.Broke.Girls.s02e01.WEBDLRip.*другой трекер*.avi
Формат                                   : AVI
Формат/Информация                        : Audio Video Interleave
Размер файла                             : 249 Мбайт
Продолжительность                        : 21 м.
Общий поток                              : 1597 Кбит/сек
Программа кодирования                    : VirtualDubMod 1.5.10.2 (build 2540/release)
Библиотека кодирования                   : VirtualDubMod build 2540/release

Видео
Идентификатор                            : 0
Формат                                   : MPEG-4 Visual
Профиль формата                          : Advanced Simple@L5
Параметр BVOP формата                    : 2
Параметр QPel формата                    : Нет
Параметр GMC формата                     : Без точки перехода
Параметр матрицы формата                 : Default (MPEG)
Идентификатор кодека                     : XVID
Идентификатор кодека/Подсказка           : XviD
Продолжительность                        : 21 м.
Битрейт                                  : 1327 Кбит/сек
Ширина                                   : 720 пикселей
Высота                                   : 400 пикселей
Соотношение сторон                       : 16:9
Частота кадров                           : 23,976 кадра/сек
Цветовое пространство                    : YUV
Субдискретизация насыщенности            : 4:2:0
Битовая глубина                          : 8 бит
Тип развёртки                            : Прогрессивная
Метод сжатия                             : С потерями
Бит/(Пиксели*Кадры)                      : 0.192
Размер потока                            : 207 Мбайт (83%)
Библиотека кодирования                   : XviD 64

Аудио #1
Идентификатор                            : 1
Формат                                   : MPEG Audio
Версия формата                           : Version 1
Профиль формата                          : Layer 3
Режим                                    : Joint stereo
Расширение режима                        : MS Stereo
Идентификатор кодека                     : 55
Идентификатор кодека/Подсказка           : MP3
Продолжительность                        : 21 м.
Вид битрейта                             : Постоянный
Битрейт                                  : 128 Кбит/сек
Каналы                                   : 2 канала
Частота                                  : 48,0 КГц
Метод сжатия                             : С потерями
Размер потока                            : 20,0 Мбайт (8%)
Выравнивание                             : Соединение по промежуткам
Продолжительность промежутка             : 42  мс. (1,00 видеокадр)
Время предзагрузки промежутка            : 504  мс.

Аудио #2
Идентификатор                            : 2
Формат                                   : MPEG Audio
Версия формата                           : Version 1
Профиль формата                          : Layer 3
Режим                                    : Joint stereo
Расширение режима                        : MS Stereo
Идентификатор кодека                     : 55
Идентификатор кодека/Подсказка           : MP3
Продолжительность                        : 21 м.
Вид битрейта                             : Постоянный
Битрейт                                  : 128 Кбит/сек
Каналы                                   : 2 канала
Частота                                  : 48,0 КГц
Метод сжатия                             : С потерями
Размер потока                            : 20,0 Мбайт (8%)
Выравнивание                             : Соединение по промежуткам
Продолжительность промежутка             : 42  мс. (1,00 видеокадр)
Время предзагрузки промежутка            : 504  мс.

Релиз группы:

picpicpicpicpic
Для увеличения картинки щелкните мышкой по превью

Этот торрент недоступен для скачивания без регистрации, однако доступен по публичной magnet-ссылке (источники с публичных трекеров). Перед использованием ссылки прочтите, пожалуйста Пользовательское соглашение, а также как можно дольше оставайтесь на раздаче! Для того, чтобы скачать сам торрент-файл (который видит больше источников), а также для того, чтобы поблагодарить релизера, вам необходимо зарегистрироваться. Если регистрироваться лень - вы можете также попробовать скачать релиз по нашим партнерским ссылкам ниже.

[underverse.su].t58062.torrent
Трекер: Зарегистрирован   [ 10.09.2015 18:20 ]  

Статус: проверено (by makkol at 11.09.2015 08:34)
Поблагодарили: пока никто не поблагодарил...
Тип торрента: публичный - доступные источники с открытых трекеров: 
Размер: 5,84 GB (занимает 1,33 DVDR, для записи нужно 2 болванки DVDR/RW)
 
 
Похожие темы
Форум Тема Автор Торрент Отв. Посл. сооб.
Зарубежные сериалы Две девицы на мели / 2 Broke Girls / Сезон 1 (1-24 серии из 24) (Дон Скардино, Фред Сэвэдж, Фил Льюис) [2011 г., комедия, HDTVRip] Dub + Original older
60 | 14

0 | 423

5

10.09.2015 18:06

Зарубежные сериалы Две девицы на мели / 2 Broke Girls / Сезон 3 (1-24 серии из 24) (Дон Скардино, Фред Сэвэдж, Фил Льюис) [2013 г., комедия, WEB-DLRip] MVO older
1 | 0

0 | 408

4

10.09.2015 18:50

Зарубежные сериалы Две девицы на мели / 2 Broke Girls / Сезон 4 (1-22 серии из 22) (Дон Скардино, Фред Сэвэдж, Фил Льюис) [2014 г., комедия, HDTVRip] MVO older
5 | 3

0 | 455

3

10.09.2015 19:09


Яндекс.Метрика powered by Sphinx


В Н И М А Н И Е
Сайт не распространяет и не хранит электронные версии произведений, а лишь бесплатно и без коммерческой выгоды (не требуя взамен платы,
SMS и т.д.) предоставляет доступ к создаваемому пользователями каталогу ссылок на торрент-файлы, которые содержат только списки хеш-сумм.
Убедительная просьба с жалобами обращаться напрямую к пользователю, разместившему торрент файл.

Вверх