Loading...
Error

Атлантида / Atlantis / Сезон 2 (1-12 серии из 12) (Джастин Молотников, Деклан О’Двайр, Элис Тротон) [2014 г., фэнтези, драма, мелодрама, приключения, HDTVRip] MVO

Статистика раздачи
Размер:  5,25 GB   |    Зарегистрирован:  1 год 2 месяца   |    Скачан:  7 раз

Полного источника не было: 6 дней

Сидов:  0  |  0 KB/s  ]   Личеров:  0  |  0 KB/s  ]

* - сиды/пиры с внешних источников

   
 
Автор Сообщение

older Пол:Муж

10-Сен-2015 15:17



Атлантида / Atlantis


Год выпуска: 2014
Жанр: фэнтези, драма, мелодрама, приключения
Страна: Великобритания
Режиссер: Джастин Молотников, Деклан О’Двайр, Элис Тротон
В ролях: Марк Эдди, Джо Диксон, Джек Доннелли, Роберт Эммс, Аийша Харт, Сара Пэриш, Джемайма Рупер, Джордж Саввидес, Джульет Стивенсон
Сюжет фильма:
Молодой Ясон в наше время отправляется на поиски своего отца, но оказывается выброшенным на берег таинственной земли. Город Атлантида — это древний мир мифических существ, оракулов-предсказателей, богинь со змеями вместо волос и настолько огромных дворцов, что поговаривают, будто они построены великанами. Но вскоре Ясон оказывается втянут в смертельный ритуал, от которого нет спасения...

Качество видео: HDTVRip

Продолжительность: ~ 00:42:00
Формат: AVI
Видео: DivX, 720х400, 1455 kbps
Аудио: русский, многоголосый закадровый [любительский], MP3 2.0, 192 kbps - Albion Studio
01 A New Dawn: Part One | Новый рассвет: Часть 1
02 A New Dawn: Part Two | Новый рассвет: Часть 2
03 Telemon | Теламон
04 The Marriage of True Minds | Брак истинной воли
05 The Day of the Dead | День мертвеца
06 The Grey Sisters | Сёстры Грайи
07 A Fate Worse Than Death | Судьба хуже смерти
08 The Madness of Hercules | Безумие Геркулеса
09 The Gorgon's Gaze | Взгляд горгоны
10 The Dying of the Light | Умирающий свет
11 Kin | Родственники
12 The Queen Must Die | Царица должна умереть

Код:

Общее
Полное имя                               : \Atlantis s02 HDTVRip MVO Albion Studio\Atlantis s02e01 HDTVRip MVO Albion Studio.avi
Формат                                   : AVI
Формат/Информация                        : Audio Video Interleave
Размер файла                             : 502 Мбайт
Продолжительность                        : 42 м.
Общий поток                              : 1656 Кбит/сек
Программа кодирования                    : VirtualDubMod 1.5.10.2 (build 2540/release)
Библиотека кодирования                   : VirtualDubMod build 2540/release

Видео
Идентификатор                            : 0
Формат                                   : MPEG-4 Visual
Профиль формата                          : Simple@L1
Параметр BVOP формата                    : Нет
Параметр QPel формата                    : Нет
Параметр GMC формата                     : Без точки перехода
Параметр матрицы формата                 : Default (H.263)
Идентификатор кодека                     : DX50
Идентификатор кодека/Подсказка           : DivX 5
Продолжительность                        : 42 м.
Битрейт                                  : 1455 Кбит/сек
Ширина                                   : 720 пикселей
Высота                                   : 400 пикселей
Соотношение сторон                       : 16:9
Частота кадров                           : 25,000 кадров/сек
Цветовое пространство                    : YUV
Субдискретизация насыщенности            : 4:2:0
Битовая глубина                          : 8 бит
Тип развёртки                            : Чересстрочная
Порядок развёртки                        : Верхнее поле первое
Метод сжатия                             : С потерями
Бит/(Пиксели*Кадры)                      : 0.202
Размер потока                            : 441 Мбайт (88%)
Библиотека кодирования                   : Lavc52.72.2

Аудио
Идентификатор                            : 1
Формат                                   : MPEG Audio
Версия формата                           : Version 1
Профиль формата                          : Layer 3
Режим                                    : Joint stereo
Идентификатор кодека                     : 55
Идентификатор кодека/Подсказка           : MP3
Продолжительность                        : 42 м.
Вид битрейта                             : Постоянный
Битрейт                                  : 192 Кбит/сек
Каналы                                   : 2 канала
Частота                                  : 48,0 КГц
Метод сжатия                             : С потерями
Размер потока                            : 58,1 Мбайт (12%)
Выравнивание                             : Соединение по промежуткам
Продолжительность промежутка             : 40  мс. (1,00 видеокадр)

Релиз: Albion Studio
Звукорежиссер: Михаил Бигыч
Роли озвучивали: Юрий Ковалев - Ясон, эпизоды
Адам Пифагорийский - Пифагор
Михаил Гапонов - Геркулес
Мария Королева - принцесса Ариадна
Ольга Никитина - Оракул, царица Пасифая, эпизоды
Мария Аскольта, Даниил Колганов, Мария Аверина, Михаил Бигыч - эпизоды
Релиз группы:

picpicpicpicpic
Для увеличения картинки щелкните мышкой по превью

Этот торрент недоступен для скачивания без регистрации, однако доступен по публичной magnet-ссылке (источники с публичных трекеров). Перед использованием ссылки прочтите, пожалуйста Пользовательское соглашение, а также как можно дольше оставайтесь на раздаче! Для того, чтобы скачать сам торрент-файл (который видит больше источников), а также для того, чтобы поблагодарить релизера, вам необходимо зарегистрироваться. Если регистрироваться лень - вы можете также попробовать скачать релиз по нашим партнерским ссылкам ниже.

[underverse.su].t58057.torrent
Трекер: Зарегистрирован   [ 10.09.2015 15:17 ]  

Статус: проверено (by makkol at 11.09.2015 08:31)
Поблагодарили: пока никто не поблагодарил...
Тип торрента: публичный - доступные источники с открытых трекеров: 
Размер: 5,25 GB (занимает 1,2 DVDR, для записи нужно 2 болванки DVDR/RW)
 
 
Похожие темы
Форум Тема Автор Торрент Отв. Посл. сооб.
Зарубежные сериалы Атлантида / Atlantis / Сезон 1 (1-13 серии из 13) (Джастин Молотников, Деклан О’Двайр, Элис Тротон) [2013 г., фэнтези, драма, мелодрама, приключения, HDTVRip] MVO older
9 | 2

0 | 266

7

10.09.2015 14:46

Архив Атлантида 2: Возвращение Майло / Atlantis: Milo`s Return (Виктор Кук, Тоби Шелтон, Тад Стоунс) [2003 г., боевик, комедия, приключения, семейный, мультфильм, DVDRip] Добрый жмот
0 | 0

1 | 886

20

16.06.2011 08:09

* Архив Атлантида в Андах / Atlantis in Andes [2001 г., документальный, TVRip] GanibalKing

4 | 1752

30.08.2010 00:06


Яндекс.Метрика powered by Sphinx


В Н И М А Н И Е
Сайт не распространяет и не хранит электронные версии произведений, а лишь бесплатно и без коммерческой выгоды (не требуя взамен платы,
SMS и т.д.) предоставляет доступ к создаваемому пользователями каталогу ссылок на торрент-файлы, которые содержат только списки хеш-сумм.
Убедительная просьба с жалобами обращаться напрямую к пользователю, разместившему торрент файл.

Вверх