Loading...
Error

Атлантида / Atlantis / Сезон 1 (1-13 серии из 13) (Джастин Молотников, Деклан О’Двайр, Элис Тротон) [2013 г., фэнтези, драма, мелодрама, приключения, HDTVRip] MVO

Статистика раздачи
Размер:  4,38 GB   |    Зарегистрирован:  1 год 2 месяца   |    Скачан:  7 раз

Полного источника не было: 4 дня

Сидов:  0  |  0 KB/s  ]   Личеров:  0  |  0 KB/s  ]

* - сиды/пиры с внешних источников

   
 
Автор Сообщение

older Пол:Муж

10-Сен-2015 14:46

Атлантида / Atlantis / Сезон 1 (1-13 серии из 13)


Год выпуска: 2013
Жанр: фэнтези, драма, мелодрама, приключения
Страна: Великобритания
Режиссер: Джастин Молотников, Деклан О’Двайр, Элис Тротон
В ролях: Марк Эдди, Джо Диксон, Джек Доннелли, Роберт Эммс, Аийша Харт, Сара Пэриш, Джемайма Рупер, Джордж Саввидес, Джульет Стивенсон
Сюжет фильма:
Молодой Ясон в наше время отправляется на поиски своего отца, но оказывается выброшенным на берег таинственной земли. Город Атлантида — это древний мир мифических существ, оракулов-предсказателей, богинь со змеями вместо волос и настолько огромных дворцов, что поговаривают, будто они построены великанами. Но вскоре Ясон оказывается втянут в смертельный ритуал, от которого нет спасения...

Качество видео: HDTVRip

Продолжительность: ~ 00:45:00
Формат: AVI
Видео: XviD, 624x352, 971 kbps
Аудио: русский, многоголосый закадровый [любительский], MP3 2.0, 192 kbps - Albion Studio
1. Минотавр
2. Девушка с другим именем
3. Мальчишка должен умереть
4. Превратности судьбы
5. Ложь во благо
6. Песня Сирены
7. Правила помолвки
8. Фурии
9. Ящик Пандоры
10. Цена надежды
11. Муки голода
12. Отмеченный богами. Часть 1
13. Отмеченный богами. Часть 2

Код:

Общее
Полное имя                               : \Atlantis 1 season HDTV MVO Albion Studio\Atlantis s01e01 HDTVRip MVO Albion Studio.avi
Формат                                   : AVI
Формат/Информация                        : Audio Video Interleave
Размер файла                             : 380 Мбайт
Продолжительность                        : 45 м.
Общий поток                              : 1173 Кбит/сек
Программа кодирования                    : VirtualDubMod 1.5.10.2 (build 2540/release)
Библиотека кодирования                   : VirtualDubMod build 2540/release

Видео
Идентификатор                            : 0
Формат                                   : MPEG-4 Visual
Профиль формата                          : Advanced Simple@L5
Параметр BVOP формата                    : 2
Параметр QPel формата                    : Нет
Параметр GMC формата                     : Без точки перехода
Параметр матрицы формата                 : Default (H.263)
Идентификатор кодека                     : XVID
Идентификатор кодека/Подсказка           : XviD
Продолжительность                        : 45 м.
Битрейт                                  : 971 Кбит/сек
Ширина                                   : 624 пикселя
Высота                                   : 352 пикселя
Соотношение сторон                       : 16:9
Соотношение сторон в оригинале           : 16:9
Частота кадров                           : 25,000 кадров/сек
Цветовое пространство                    : YUV
Субдискретизация насыщенности            : 4:2:0
Битовая глубина                          : 8 бит
Тип развёртки                            : Прогрессивная
Метод сжатия                             : С потерями
Бит/(Пиксели*Кадры)                      : 0.177
Размер потока                            : 314 Мбайт (83%)
Библиотека кодирования                   : XviD 1.1.2 (UTC 2006-11-01)

Аудио
Идентификатор                            : 1
Формат                                   : MPEG Audio
Версия формата                           : Version 1
Профиль формата                          : Layer 3
Идентификатор кодека                     : 55
Идентификатор кодека/Подсказка           : MP3
Продолжительность                        : 45 м.
Вид битрейта                             : Постоянный
Битрейт                                  : 192 Кбит/сек
Каналы                                   : 2 канала
Частота                                  : 44,1 КГц
Метод сжатия                             : С потерями
Размер потока                            : 62,2 Мбайт (16%)
Выравнивание                             : Разделение по промежуткам
Продолжительность промежутка             : 40  мс. (1,00 видеокадр)

Релиз: Albion Studio
Перевод: Notabenoid
Литературная редакция: Albion-Studio (Yoda, Bigych)
Звукорежиссер: Михаил Бигыч
Роли озвучивали:
Юрий Ковалев - Ясон, эпизоды
Адам Пифагорийский - Пифагор
Михаил Гапонов - Геркулес
Мария Королева - принцесса Ариадна
Алексей Леонов - царь Минас, эпизоды
Эльвира Арчи - Оракул, царица Пасифая, эпизоды
Михаил Бигыч - жрец Оракула, эпизоды
Мария Аскольта - Медуза, эпизоды
Марина Ковалева - эпизоды
Елена ВерСия - эпизоды
Катя Скетчер - эпизоды
Релиз группы:

picpicpicpicpic
Для увеличения картинки щелкните мышкой по превью

Этот торрент недоступен для скачивания без регистрации, однако доступен по публичной magnet-ссылке (источники с публичных трекеров). Перед использованием ссылки прочтите, пожалуйста Пользовательское соглашение, а также как можно дольше оставайтесь на раздаче! Для того, чтобы скачать сам торрент-файл (который видит больше источников), а также для того, чтобы поблагодарить релизера, вам необходимо зарегистрироваться. Если регистрироваться лень - вы можете также попробовать скачать релиз по нашим партнерским ссылкам ниже.

[underverse.su].t58056.torrent
Трекер: Зарегистрирован   [ 10.09.2015 14:46 ]  

Статус: проверено (by makkol at 11.09.2015 08:30)
Поблагодарили: 1 человек
Тип торрента: публичный - доступные источники с открытых трекеров: 
Размер: 4,38 GB (занимает 1 DVDR, для записи нужно 2 болванки DVDR/RW)
 
 
Похожие темы
Форум Тема Автор Торрент Отв. Посл. сооб.
Зарубежные сериалы Атлантида / Atlantis / Сезон 2 (1-12 серии из 12) (Джастин Молотников, Деклан О’Двайр, Элис Тротон) [2014 г., фэнтези, драма, мелодрама, приключения, HDTVRip] MVO older
2 | 1

0 | 293

7

10.09.2015 15:17

Архив Атлантида 2: Возвращение Майло / Atlantis: Milo`s Return (Виктор Кук, Тоби Шелтон, Тад Стоунс) [2003 г., боевик, комедия, приключения, семейный, мультфильм, DVDRip] Добрый жмот
0 | 0

1 | 884

20

16.06.2011 08:09

* Архив Атлантида в Андах / Atlantis in Andes [2001 г., документальный, TVRip] GanibalKing

4 | 1750

30.08.2010 00:06


Яндекс.Метрика powered by Sphinx


В Н И М А Н И Е
Сайт не распространяет и не хранит электронные версии произведений, а лишь бесплатно и без коммерческой выгоды (не требуя взамен платы,
SMS и т.д.) предоставляет доступ к создаваемому пользователями каталогу ссылок на торрент-файлы, которые содержат только списки хеш-сумм.
Убедительная просьба с жалобами обращаться напрямую к пользователю, разместившему торрент файл.

Вверх