Loading...
Error

Агенты Щ.И.Т. / Agents of S.H.I.E.L.D. / Сезон 2 (1-22 серии из 22) (Винс Мисиано, Билл Джирхарт, Бобби Рот) [2014 г., фантастика, боевик, драма, WEB-DLRip] MVO + Original

Статистика раздачи
Размер:  10,74 GB   |    Зарегистрирован:  1 год 2 месяца   |    Скачан:  5 раз

Полного источника не было: 20 дней

Сидов:  0  |  0 KB/s  ]   Личеров:  0  |  0 KB/s  ]

* - сиды/пиры с внешних источников

   
 
Автор Сообщение

older Пол:Муж

10-Сен-2015 14:04

Агенты Щ.И.Т. / Agents of S.H.I.E.L.D. / Сезон 2 (1-22 серии из 22)


Год выпуска: 2014
Жанр: фантастика, боевик, драма
Страна: США
Режиссер: Винс Мисиано, Билл Джирхарт, Бобби Рот
В ролях: Кларк Грегг, Минг-На, Бретт Далтон, Хлоя Беннет, Йен де Кестекер, Элизабет Хенстридж, Дж. Аугуст Ричардс, Шеннон Лусио, Рон Гласс, Роберт Дж. Стефенсон, Коби Смолдерс, Аарон Бер, Николь Дж. Батлер, Сара Дюмон, Леонор Варела, Иэн Харт, Дэвид Конрад
Сюжет фильма:
Действия сериала разворачиваются после событий фильма «Мстители». Агент Фил Колсон возвращается в правоохранительную организацию под названием Щ.И.Т., собрав небольшую команду профессионалов, он начинает работу над новыми делами, которые порой бывают очень странными.

Качество видео: WEB-DLRip

Продолжительность: ~ 00:43:00
Формат: AVI
Видео: XviD, 720х400, 1355 kbps
Аудио #1: русский, многоголосый закадровый [профессиональный], MP3 2.0, 128 kbps - LostFilm
Аудио #2: английский, оригинал, MP3 2.0, 128 kbps
Субтитры #1: тип: внешние, русский, формат: SRT
Субтитры #2: тип: внешние, английский, формат: SRT

Код:

Общее
Полное имя                               : \Agents of S.H.I.E.L.D. (S02)\Agents.of.S.H.I.E.L.D.s02e01.XviD.LostFilm.[qqss44].avi
Формат                                   : AVI
Формат/Информация                        : Audio Video Interleave
Размер файла                             : 500 Мбайт
Продолжительность                        : 43 м.
Общий поток                              : 1625 Кбит/сек
Программа кодирования                    : VirtualDubMod 1.5.10.3 | www.virtualdub-fr.org || (build 2550/release)
Библиотека кодирования                   : VirtualDubMod build 2550/release

Видео
Идентификатор                            : 0
Формат                                   : MPEG-4 Visual
Профиль формата                          : Advanced Simple@L5
Параметр BVOP формата                    : 2
Параметр QPel формата                    : Нет
Параметр GMC формата                     : Без точки перехода
Параметр матрицы формата                 : Default (H.263)
Идентификатор кодека                     : XVID
Идентификатор кодека/Подсказка           : XviD
Продолжительность                        : 43 м.
Битрейт                                  : 1355 Кбит/сек
Ширина                                   : 720 пикселей
Высота                                   : 400 пикселей
Соотношение сторон                       : 16:9
Частота кадров                           : 23,976 кадра/сек
Цветовое пространство                    : YUV
Субдискретизация насыщенности            : 4:2:0
Битовая глубина                          : 8 бит
Тип развёртки                            : Прогрессивная
Метод сжатия                             : С потерями
Бит/(Пиксели*Кадры)                      : 0.196
Размер потока                            : 417 Мбайт (83%)
Библиотека кодирования                   : XviD 73

Аудио #1
Идентификатор                            : 1
Формат                                   : MPEG Audio
Версия формата                           : Version 1
Профиль формата                          : Layer 3
Режим                                    : Joint stereo
Расширение режима                        : MS Stereo
Идентификатор кодека                     : 55
Идентификатор кодека/Подсказка           : MP3
Продолжительность                        : 43 м.
Вид битрейта                             : Постоянный
Битрейт                                  : 128 Кбит/сек
Каналы                                   : 2 канала
Частота                                  : 48,0 КГц
Метод сжатия                             : С потерями
Размер потока                            : 39,4 Мбайт (8%)
Выравнивание                             : Соединение по промежуткам
Продолжительность промежутка             : 42  мс. (1,00 видеокадр)
Время предзагрузки промежутка            : 504  мс.

Аудио #2
Идентификатор                            : 2
Формат                                   : MPEG Audio
Версия формата                           : Version 1
Профиль формата                          : Layer 3
Режим                                    : Joint stereo
Расширение режима                        : MS Stereo
Идентификатор кодека                     : 55
Идентификатор кодека/Подсказка           : MP3
Продолжительность                        : 43 м.
Вид битрейта                             : Постоянный
Битрейт                                  : 128 Кбит/сек
Каналы                                   : 2 канала
Частота                                  : 48,0 КГц
Метод сжатия                             : С потерями
Размер потока                            : 39,4 Мбайт (8%)
Выравнивание                             : Соединение по промежуткам
Продолжительность промежутка             : 42  мс. (1,00 видеокадр)
Время предзагрузки промежутка            : 504  мс.

Автор релиза: qqss44
Релиз: рип, синхронизация звука qqss44
Субтитры: Нотабеноид от Firefly2012, синхронизация qqss44
Релиз группы:

picpicpicpicpic
Для увеличения картинки щелкните мышкой по превью

Этот торрент недоступен для скачивания без регистрации, однако доступен по публичной magnet-ссылке (источники с публичных трекеров). Перед использованием ссылки прочтите, пожалуйста Пользовательское соглашение, а также как можно дольше оставайтесь на раздаче! Для того, чтобы скачать сам торрент-файл (который видит больше источников), а также для того, чтобы поблагодарить релизера, вам необходимо зарегистрироваться. Если регистрироваться лень - вы можете также попробовать скачать релиз по нашим партнерским ссылкам ниже.

[underverse.su].t58055.torrent
Трекер: Зарегистрирован   [ 10.09.2015 14:04 ]  

Статус: проверено (by makkol at 10.09.2015 14:27)
Поблагодарили: пока никто не поблагодарил...
Тип торрента: публичный - доступные источники с открытых трекеров: 
Размер: 10,74 GB (занимает 2,45 DVDR, для записи нужно 3 болванки DVDR/RW)
 
 
Похожие темы
Форум Тема Автор Торрент Отв. Посл. сооб.
Зарубежные сериалы Агенты Щ.И.Т. / Marvel's Agents of S.H.I.E.L.D. / Сезон: 1 / Серии: 1-22 из 22 (Джосс Уидон) [2013-14 г., фантастика, боевик, драма, WEB-DLRip] MVO (Lostfilm) yejik123
1 | 0

7 | 989

18

16.06.2014 22:44

T Зарубежные сериалы Агенты Щ.И.Т. / Marvel's Agents of S.H.I.E.L.D. / Сезон 3 (01-19 из 22) (Джесси Бокко, Милан Чейлов, Роксанн Доусон, Дэвид Стрейтон, Джосс Уидон, Винс Мисиано) [2015 г., Боевик, фантастика, драма,... Dryn9
6 | 4

0 | 841

5

06.05.2016 07:47


Яндекс.Метрика powered by Sphinx


В Н И М А Н И Е
Сайт не распространяет и не хранит электронные версии произведений, а лишь бесплатно и без коммерческой выгоды (не требуя взамен платы,
SMS и т.д.) предоставляет доступ к создаваемому пользователями каталогу ссылок на торрент-файлы, которые содержат только списки хеш-сумм.
Убедительная просьба с жалобами обращаться напрямую к пользователю, разместившему торрент файл.

Вверх