Loading...
Error

Стрела / Arrow / Сезоны 1-3 (1-69 серии из 69) (Джон Беринг, Майкл Шульц, Гай Норман Би) [2012-2015 г., фантастика, боевик, драма, криминал, детектив, приключения, WEB-DLRip] MVO + Original

Статистика раздачи
Размер:  56,92 GB   |    Зарегистрирован:  1 год 2 месяца   |    Скачан:  2 раза

Полного источника не было: 9 месяцев

Сидов:  0  |  0 KB/s  ]   Личеров:  0  |  0 KB/s  ]

* - сиды/пиры с внешних источников

   
 
Автор Сообщение

older Пол:Муж

10-Сен-2015 13:15



Стрела / Arrow / Сезоны 1-3


Год выпуска: 2012-2015
Жанр: фантастика, боевик, драма, криминал, детектив, приключения
Страна: США
Режиссер: Джон Беринг, Майкл Шульц, Гай Норман Би
В ролях: Стивен Амелл, Кэти Кэссиди, Колин Доннелл, Дэвид Рэмси, Уилла Холлэнд, Сюзанна Томпсон, Пол Блекторн, Колин Сэлмон, Эмили Бетт Рикардс, Энни Айлонзех, Себастьян Данн, Байрон Манн, Роджер Р. Кросс, Мэррет Грин, Ли Винсент, Джон Барроумен, Лесли Ивен
Сюжет фильма:
После кораблекрушения плейбой миллиардер Оливер Куин пропадает и считается погибшим в течение пяти лет, после чего его обнаруживают живым на затерянном острове в Тихом океане. Когда он возвращается домой в Старлинг-Сити, его преданная мать Мойра, столь любимая сестра Теа и лучший друг Томми приветствуют его дома, но они видят, что Оливер изменился после испытаний на острове. Хотя Оливер скрывает правду о человеке, которым он стал…

Качество видео: WEB-DLRip

Продолжительность: ~ 00:42:00
Формат: AVI
Видео: XviD, 720х400, 1998 kbps
Аудио #1: русский, многоголосый закадровый [профессиональный], AC3 5.1, 384-448 kbps
Аудио #2: английский, оригинал, AC3 5.1, 384 kbps
Сезон 1:

01. Пилот / Pilot
02. Чти отца твоего / Honor Thy Father
03. Одинокий убийца / Lone Gunmen
04. Невиновный / An Innocent Man
05. Сломленный / Damaged
06. Наследие / Legacies
07. Муза пламени / Muse of Fire
08. Вендетта / Vendetta
09. Конец года / Year's End
10. Обгоревший / Burned
11. Доверяй, но проверяй / Trust But Verify
12. Вертиго / Vertigo
13. Предательство / Betrayal
14. Одиссея / The Odyssey
15. Доджер (Ловкач) / Dodger
16. С поличным / Dead to Rights
17. Охотница возвращается / The Huntress Returns
18. Спасение / Salvation
19. Незавершённое дело / Unfinished Business
20. Вторжение в дом / Home Invasion
21. Предприятие / The Undertaking
22. Тьма на подступах к городу / Darkness on the Edge of Town
23. Жертва / Sacrifice

Сезон 2:

01. Город героев / City of Heroes
02. Найти себя / Identity
03. Сломанные куклы / Broken Dolls
04. Тяжёлое испытание / Crucible
05. Лига убийц / League of Assassins
06. Держи врагов ближе / Keep Your Enemies Closer
07. Соединённые штаты против Куин / State vs Queen
08. Учёный / The Scientist
09. Три призрака / Three Ghosts
10. Радиус поражения / Blast Radius
11. Слепая зона / Blind Spot
12. Волнения / Tremors
13. Наследница демона / Heir to the Demon
14. Время смерти / Time of Death
15. Обещание / The Promise
16. Отряд самоубийц / Suicide Squad
17. Хищные птицы / Birds of Prey
18. Дефстроук / Deathstroke
19. Человек в капюшоне / The Man Under the Hood
20. В ярости / Seeing Red
21. Город в крови / City of Blood
22. Улицы в огне / Streets of Fire
23. Немыслимое / Unthinkable

Сезон 3:

01. Затишье (The Calm)
02. Сара (Sara)
03. Корте Мальтез (Corto Maltese)
04. Колдун (The Magician)
05. Тайны прошлого Фелисити Смоук (The Secret Origin of Felicity Smoak)
06. Виновен (Guilty)
07. Придержи свой лук (Draw Back Your Bow)
08. Отважный и смелый (The Brave and the Bold)
09. Восхождение (The Climb)
10. Восхождение (The Climb)
11. Полуночный город (Midnight City)
12. Восстание (Uprising)
13. Канарейки (Canaries)
14. Возвращение (The Return)
15. Нанда Парбат (Nanda Parbat)
16. Предложение (The Offer)
17. Суицидальные наклонности (Suicidal Tendencies)
18. Общий враг (Public Enemy)
19. Сломанная стрела (Broken Arrow)
20. Павшие (The Fallen)
21. Аль-Сахим (Al Sah-Him)
22. Таков твой меч (This Is Your Sword)
23. Меня зовут Оливер Куин (My Name Is Oliver Queen)

Код:

Общее
Полное имя                               : \Arrow\Season 1\Arrow.s01e01.LostFilm.avi
Формат                                   : AVI
Формат/Информация                        : Audio Video Interleave
Размер файла                             : 866 Мбайт
Продолжительность                        : 42 м.
Общий поток                              : 2844 Кбит/сек
Программа кодирования                    : VirtualDubMod 1.5.10.2 (build 2540/release)
Библиотека кодирования                   : VirtualDubMod build 2540/release

Видео
Идентификатор                            : 0
Формат                                   : MPEG-4 Visual
Профиль формата                          : Advanced Simple@L5
Параметр BVOP формата                    : 1
Параметр QPel формата                    : Нет
Параметр GMC формата                     : Без точки перехода
Параметр матрицы формата                 : Default (MPEG)
Идентификатор кодека                     : XVID
Идентификатор кодека/Подсказка           : XviD
Продолжительность                        : 42 м.
Битрейт                                  : 1998 Кбит/сек
Ширина                                   : 720 пикселей
Высота                                   : 400 пикселей
Соотношение сторон                       : 16:9
Частота кадров                           : 23,976 кадра/сек
Цветовое пространство                    : YUV
Субдискретизация насыщенности            : 4:2:0
Битовая глубина                          : 8 бит
Тип развёртки                            : Прогрессивная
Метод сжатия                             : С потерями
Бит/(Пиксели*Кадры)                      : 0.289
Размер потока                            : 608 Мбайт (70%)
Библиотека кодирования                   : XviD 65

Аудио #1
Идентификатор                            : 1
Формат                                   : AC-3
Формат/Информация                        : Audio Coding 3
Расширение режима                        : CM (complete main)
Параметр Endianness формата              : Big
Идентификатор кодека                     : 2000
Продолжительность                        : 42 м.
Вид битрейта                             : Постоянный
Битрейт                                  : 448 Кбит/сек
Каналы                                   : 6 каналов
Расположение каналов                     : Front: L C R, Side: L R, LFE
Частота                                  : 48,0 КГц
Битовая глубина                          : 16 бит
Метод сжатия                             : С потерями
Размер потока                            : 136 Мбайт (16%)
Выравнивание                             : Разделение по промежуткам
Продолжительность промежутка             : 42  мс. (1,00 видеокадр)
Время предзагрузки промежутка            : 500  мс.

Аудио #2
Идентификатор                            : 2
Формат                                   : AC-3
Формат/Информация                        : Audio Coding 3
Расширение режима                        : CM (complete main)
Параметр Endianness формата              : Big
Идентификатор кодека                     : 2000
Продолжительность                        : 42 м.
Вид битрейта                             : Постоянный
Битрейт                                  : 384 Кбит/сек
Каналы                                   : 6 каналов
Расположение каналов                     : Front: L C R, Side: L R, LFE
Частота                                  : 48,0 КГц
Битовая глубина                          : 16 бит
Метод сжатия                             : С потерями
Размер потока                            : 117 Мбайт (14%)
Выравнивание                             : Разделение по промежуткам
Продолжительность промежутка             : 42  мс. (1,00 видеокадр)
Время предзагрузки промежутка            : 500  мс.

Код:

Общее
Полное имя                               : \Arrow\Season 2\Arrow.s02e01.LostFilm.avi
Формат                                   : AVI
Формат/Информация                        : Audio Video Interleave
Размер файла                             : 844 Мбайт
Продолжительность                        : 42 м.
Общий поток                              : 2782 Кбит/сек
Программа кодирования                    : VirtualDubModRus 1.5.10.2 (build 2542/release)
Библиотека кодирования                   : VirtualDubMod build 2542/release

Видео
Идентификатор                            : 0
Формат                                   : MPEG-4 Visual
Профиль формата                          : Advanced Simple@L5
Параметр BVOP формата                    : 1
Параметр QPel формата                    : Нет
Параметр GMC формата                     : Без точки перехода
Параметр матрицы формата                 : Default (MPEG)
Идентификатор кодека                     : XVID
Идентификатор кодека/Подсказка           : XviD
Продолжительность                        : 42 м.
Битрейт                                  : 2000 Кбит/сек
Ширина                                   : 720 пикселей
Высота                                   : 400 пикселей
Соотношение сторон                       : 16:9
Частота кадров                           : 23,976 кадра/сек
Цветовое пространство                    : YUV
Субдискретизация насыщенности            : 4:2:0
Битовая глубина                          : 8 бит
Тип развёртки                            : Прогрессивная
Метод сжатия                             : С потерями
Бит/(Пиксели*Кадры)                      : 0.290
Размер потока                            : 607 Мбайт (72%)
Библиотека кодирования                   : XviD 64

Аудио #1
Идентификатор                            : 1
Формат                                   : AC-3
Формат/Информация                        : Audio Coding 3
Расширение режима                        : CM (complete main)
Параметр Endianness формата              : Big
Идентификатор кодека                     : 2000
Продолжительность                        : 42 м.
Вид битрейта                             : Постоянный
Битрейт                                  : 384 Кбит/сек
Каналы                                   : 6 каналов
Расположение каналов                     : Front: L C R, Side: L R, LFE
Частота                                  : 48,0 КГц
Битовая глубина                          : 16 бит
Метод сжатия                             : С потерями
Размер потока                            : 116 Мбайт (14%)
Выравнивание                             : Разделение по промежуткам
Продолжительность промежутка             : 42  мс. (1,00 видеокадр)
Время предзагрузки промежутка            : 500  мс.

Аудио #2
Идентификатор                            : 2
Формат                                   : AC-3
Формат/Информация                        : Audio Coding 3
Расширение режима                        : CM (complete main)
Параметр Endianness формата              : Big
Идентификатор кодека                     : 2000
Продолжительность                        : 42 м.
Вид битрейта                             : Постоянный
Битрейт                                  : 384 Кбит/сек
Каналы                                   : 6 каналов
Расположение каналов                     : Front: L C R, Side: L R, LFE
Частота                                  : 48,0 КГц
Битовая глубина                          : 16 бит
Метод сжатия                             : С потерями
Размер потока                            : 116 Мбайт (14%)
Выравнивание                             : Разделение по промежуткам
Продолжительность промежутка             : 42  мс. (1,00 видеокадр)
Время предзагрузки промежутка            : 500  мс.

Код:

Общее
Полное имя                               : \Arrow\Season 3\Arrow.s03e.21.LostFilm.avi
Формат                                   : AVI
Формат/Информация                        : Audio Video Interleave
Размер файла                             : 831 Мбайт
Продолжительность                        : 41 м.
Общий поток                              : 2782 Кбит/сек
Программа кодирования                    : VirtualDubMod 1.5.10.2 (build 2540/release)
Библиотека кодирования                   : VirtualDubMod build 2540/release

Видео
Идентификатор                            : 0
Формат                                   : MPEG-4 Visual
Профиль формата                          : Advanced Simple@L5
Параметр BVOP формата                    : 1
Параметр QPel формата                    : Нет
Параметр GMC формата                     : Без точки перехода
Параметр матрицы формата                 : Default (MPEG)
Идентификатор кодека                     : XVID
Идентификатор кодека/Подсказка           : XviD
Продолжительность                        : 41 м.
Битрейт                                  : 2000 Кбит/сек
Ширина                                   : 720 пикселей
Высота                                   : 400 пикселей
Соотношение сторон                       : 16:9
Частота кадров                           : 23,976 кадра/сек
Цветовое пространство                    : YUV
Субдискретизация насыщенности            : 4:2:0
Битовая глубина                          : 8 бит
Тип развёртки                            : Прогрессивная
Метод сжатия                             : С потерями
Бит/(Пиксели*Кадры)                      : 0.290
Размер потока                            : 597 Мбайт (72%)
Библиотека кодирования                   : XviD 73

Аудио #1
Идентификатор                            : 1
Формат                                   : AC-3
Формат/Информация                        : Audio Coding 3
Расширение режима                        : CM (complete main)
Параметр Endianness формата              : Big
Идентификатор кодека                     : 2000
Продолжительность                        : 41 м.
Вид битрейта                             : Постоянный
Битрейт                                  : 384 Кбит/сек
Каналы                                   : 6 каналов
Расположение каналов                     : Front: L C R, Side: L R, LFE
Частота                                  : 48,0 КГц
Битовая глубина                          : 16 бит
Метод сжатия                             : С потерями
Размер потока                            : 115 Мбайт (14%)
Выравнивание                             : Разделение по промежуткам
Продолжительность промежутка             : 42  мс. (1,00 видеокадр)
Время предзагрузки промежутка            : 500  мс.

Аудио #2
Идентификатор                            : 2
Формат                                   : AC-3
Формат/Информация                        : Audio Coding 3
Расширение режима                        : CM (complete main)
Параметр Endianness формата              : Big
Идентификатор кодека                     : 2000
Продолжительность                        : 41 м.
Вид битрейта                             : Постоянный
Битрейт                                  : 384 Кбит/сек
Каналы                                   : 6 каналов
Расположение каналов                     : Front: L C R, Side: L R, LFE
Частота                                  : 48,0 КГц
Битовая глубина                          : 16 бит
Метод сжатия                             : С потерями
Размер потока                            : 115 Мбайт (14%)
Выравнивание                             : Разделение по промежуткам
Продолжительность промежутка             : 42  мс. (1,00 видеокадр)
Время предзагрузки промежутка            : 500  мс.

Релиз группы:

picpicpicpicpic
Для увеличения картинки щелкните мышкой по превью

Этот торрент недоступен для скачивания без регистрации, однако доступен по публичной magnet-ссылке (источники с публичных трекеров). Перед использованием ссылки прочтите, пожалуйста Пользовательское соглашение, а также как можно дольше оставайтесь на раздаче! Для того, чтобы скачать сам торрент-файл (который видит больше источников), а также для того, чтобы поблагодарить релизера, вам необходимо зарегистрироваться. Если регистрироваться лень - вы можете также попробовать скачать релиз по нашим партнерским ссылкам ниже.

[underverse.su].t58052.torrent
Трекер: Зарегистрирован   [ 10.09.2015 13:15 ]  

Статус: проверено (by makkol at 10.09.2015 13:50)
Поблагодарили: пока никто не поблагодарил...
Тип торрента: публичный - доступные источники с открытых трекеров: 
Размер: 56,92 GB (занимает 13 DVDR, для записи нужно 14 болванок DVDR/RW)
 
 
Похожие темы
Форум Тема Автор Торрент Отв. Посл. сооб.
Зарубежные сериалы Стрела / Arrow / Сезон: 1, серии: 1-5 (Дэвид Баррет, Эгил Эгилссон, Ник Копус) [2012 г., фантастика, боевик, драма, криминал, детектив, приключения, WEBDLRip] MVO + Original eXtatik
0 | 0

0 | 1237

18

13.11.2012 09:00

Зарубежные сериалы Стрела / Arrow / Сезон 1 / Серии 1-23 (23) (Дэвид Баррет, Эгил Эгилссон, Ник Копус) [2012 г., фантастика, боевик, драма, криминал, детектив, приключения, WEBDLRip] MVO Чертёнок
2 | 0

10 | 7699

52

18.05.2013 15:56

Зарубежные сериалы Стрела / Arrow / Сезон 1 / Серии 1-21 (23) (Дэвид Баррет, Эгил Эгилссон, Ник Копус) [2012 г.,фантастика, боевик, драма, криминал, детектив, приключения, WEB-DLRip] MVO LostFilm TERRAN
3 | 0

3 | 1126

18

23.12.2013 04:10

Зарубежные сериалы Стрела / Arrow [сезон 2 / серии 01-23 (23)] (Гай Норман Би / Guy Norman Bee, Джон Беринг / John Behring) [2013-2014 г., фантастика, боевик, драма, криминал, детектив, приключения, WEB-DLRip] MVO... 90ytr90
2 | 0

0 | 1897

6

01.03.2014 11:41

T Зарубежные сериалы Стрела / Arrow / Сезон 4 (01-19 из 23) (Дэвид Баррет, Дэвид Наттер) [2015-2016 г., Фантастика, драма, детектив, боевик, приключения, комикс, WEB-DLRip] MVO (NewStudio) + Original Dryn9
0 | 0

0 | 856

1

30.04.2016 13:07

Зарубежные сериалы [BD / Remux / BDRip / WEB-DL / HDTV 1080/720р] Стрела / Arrow / Сезон: 1 / серии: 1-16 (Дэвид Баррет, Эгил Эгилссон, Ник Копус) [2012 г., Драма, приключения, боевик, WEBDLRip-720p] MVO + Original yuriy1920
0 | 0

12 | 6239

6

02.03.2013 16:47


Яндекс.Метрика powered by Sphinx


В Н И М А Н И Е
Сайт не распространяет и не хранит электронные версии произведений, а лишь бесплатно и без коммерческой выгоды (не требуя взамен платы,
SMS и т.д.) предоставляет доступ к создаваемому пользователями каталогу ссылок на торрент-файлы, которые содержат только списки хеш-сумм.
Убедительная просьба с жалобами обращаться напрямую к пользователю, разместившему торрент файл.

Вверх