Loading...
Error

Царство / Reign / Сезон 1 (1-22 серии из 22) (Фред Гербер, Холли Дэйл, Норма Бэйли) [2013 г., фэнтези, драма, WEB-DLRip] MVO + Original

Статистика раздачи
Размер:  9,39 GB   |    Зарегистрирован:  1 год 2 месяца   |    Скачан:  4 раза

Полного источника не было: 18 дней

Сидов:  0  |  0 KB/s  ]   Личеров:  0  |  0 KB/s  ]

* - сиды/пиры с внешних источников

   
 
Автор Сообщение

older Пол:Муж

10-Сен-2015 08:26

Царство / Reign / Сезон 1 (1-22 серии из 22)


Год выпуска: 2013
Жанр: фэнтези, драма
Страна: США
Режиссер: Фред Гербер, Холли Дэйл, Норма Бэйли
В ролях: Аделаида Кэйн, Тоби Регбо, Торранс Кумбс, Меган Фоллоуз, Алан Ван Спрэнг, Селина Синден, Кэйтлин Стэйси, Анна Попплуэлл, Дженесса Грант, Марк Балдесарра
Сюжет фильма:
Сериал, повествующий о событиях 1557 года. Королеву Шотландии, Марию, с детства прячут в монастыре. Обходить стороной соперников, злодеев, желающих ее смерти, ей помогают монахини. Но приходит время возвращаться в замок и становиться не только титулованной королевой, но и женой принца Франциска, с которым девушка была обручена ещё несколько лет назад. Основу всей царской жизни составляют хитроумные планы и интриги. Король смотрит на женитьбу только как на способ сблизиться с другой страной и сделать свою власть ещё масштабнее и крепче. О светлых чувствах и влечениях речь идет только в сердце самой Марии, которая сразу же прибыв в замок, оказывается в центре сплетен и слухов. «Царство» рассказывает о приходе к власти Марии, о ее любви, о ее стремлениях и характере. Мария становится светлым лучиком в царстве тьмы, где правят темные силы и сексуальные интриги.

Качество видео: WEB-DLRip

Продолжительность: ~ 00:42:00
Формат: AVI
Видео: XviD, 624x352, 1005 kbps
Аудио #1: русский, многоголосый закадровый [профессиональный], MP3 2.0, 224 kbps - Amedia
Аудио #2: английский, оригинал, MP3 2.0, 224 kbps

Код:

Общее
Полное имя                               : \Reign (Season 1) Amedia\Reign.S01E01.CasStudio.avi
Формат                                   : AVI
Формат/Информация                        : Audio Video Interleave
Размер файла                             : 447 Мбайт
Продолжительность                        : 42 м.
Общий поток                              : 1467 Кбит/сек
Программа кодирования                    : VirtualDubMod 1.5.10.2 (build 2542/release)
Библиотека кодирования                   : VirtualDubMod build 2542/release

Видео
Идентификатор                            : 0
Формат                                   : MPEG-4 Visual
Профиль формата                          : Advanced Simple@L5
Параметр BVOP формата                    : 1
Параметр QPel формата                    : Нет
Параметр GMC формата                     : Без точки перехода
Параметр матрицы формата                 : Default (H.263)
Идентификатор кодека                     : XVID
Идентификатор кодека/Подсказка           : XviD
Продолжительность                        : 42 м.
Битрейт                                  : 1005 Кбит/сек
Ширина                                   : 624 пикселя
Высота                                   : 352 пикселя
Соотношение сторон                       : 16:9
Частота кадров                           : 23,976 кадра/сек
Цветовое пространство                    : YUV
Субдискретизация насыщенности            : 4:2:0
Битовая глубина                          : 8 бит
Тип развёртки                            : Прогрессивная
Метод сжатия                             : С потерями
Бит/(Пиксели*Кадры)                      : 0.191
Размер потока                            : 306 Мбайт (69%)
Библиотека кодирования                   : XviD 65

Аудио #1
Идентификатор                            : 1
Формат                                   : MPEG Audio
Версия формата                           : Version 1
Профиль формата                          : Layer 3
Режим                                    : Joint stereo
Расширение режима                        : MS Stereo
Идентификатор кодека                     : 55
Идентификатор кодека/Подсказка           : MP3
Продолжительность                        : 42 м.
Вид битрейта                             : Постоянный
Битрейт                                  : 224 Кбит/сек
Каналы                                   : 2 канала
Частота                                  : 48,0 КГц
Метод сжатия                             : С потерями
Размер потока                            : 68,2 Мбайт (15%)
Выравнивание                             : Соединение по промежуткам
Продолжительность промежутка             : 42  мс. (1,00 видеокадр)
Время предзагрузки промежутка            : 504  мс.
Библиотека кодирования                   : LAME3.99r
Настройки программы                      : -m j -V 4 -q 2 -lowpass 19.4 -b 224

Аудио #2
Идентификатор                            : 2
Формат                                   : MPEG Audio
Версия формата                           : Version 1
Профиль формата                          : Layer 3
Режим                                    : Joint stereo
Расширение режима                        : MS Stereo
Идентификатор кодека                     : 55
Идентификатор кодека/Подсказка           : MP3
Продолжительность                        : 42 м.
Вид битрейта                             : Постоянный
Битрейт                                  : 224 Кбит/сек
Каналы                                   : 2 канала
Частота                                  : 48,0 КГц
Метод сжатия                             : С потерями
Размер потока                            : 68,2 Мбайт (15%)
Выравнивание                             : Соединение по промежуткам
Продолжительность промежутка             : 42  мс. (1,00 видеокадр)
Время предзагрузки промежутка            : 504  мс.
Библиотека кодирования                   : LAME3.99r
Настройки программы                      : -m j -V 4 -q 2 -lowpass 19.4 -b 224

Релиз группы:

picpicpicpicpic
Для увеличения картинки щелкните мышкой по превью

Этот торрент недоступен для скачивания без регистрации, однако доступен по публичной magnet-ссылке (источники с публичных трекеров). Перед использованием ссылки прочтите, пожалуйста Пользовательское соглашение, а также как можно дольше оставайтесь на раздаче! Для того, чтобы скачать сам торрент-файл (который видит больше источников), а также для того, чтобы поблагодарить релизера, вам необходимо зарегистрироваться. Если регистрироваться лень - вы можете также попробовать скачать релиз по нашим партнерским ссылкам ниже.

[underverse.su].t58043.torrent
Трекер: Зарегистрирован   [ 10.09.2015 08:26 ]  

Статус: проверено (by makkol at 10.09.2015 10:35)
Поблагодарили: пока никто не поблагодарил...
Тип торрента: публичный - доступные источники с открытых трекеров: 
Размер: 9,39 GB (занимает 2,15 DVDR, для записи нужно 3 болванки DVDR/RW)
 
 
Похожие темы
Форум Тема Автор Торрент Отв. Посл. сооб.
Зарубежные сериалы Царство / Reign / Сезон 2 (1-22 серии из 22) (Фред Гербер, Холли Дэйл, Норма Бэйли) [2014 г., фэнтези, драма, WEB-DLRip] MVO older
19 | 2

0 | 339

4

10.09.2015 09:46


Яндекс.Метрика powered by Sphinx


В Н И М А Н И Е
Сайт не распространяет и не хранит электронные версии произведений, а лишь бесплатно и без коммерческой выгоды (не требуя взамен платы,
SMS и т.д.) предоставляет доступ к создаваемому пользователями каталогу ссылок на торрент-файлы, которые содержат только списки хеш-сумм.
Убедительная просьба с жалобами обращаться напрямую к пользователю, разместившему торрент файл.

Вверх