Loading...
Error

Элементарно / Elementary / Сезоны 1-3 (1-72 серии из 72) (Джон Полсон, Гай Ферленд, Сет Манн) [2012-2015 г., драма, криминал, детектив, WEB-DLRip] MVO

Статистика раздачи
Размер:  30,13 GB   |    Зарегистрирован:  1 год 2 месяца   |    Скачан:  3 раза

Полного источника не было: 1 месяц 19 дней

Сидов:  0  |  0 KB/s  ]   Личеров:  0  |  0 KB/s  ]

* - сиды/пиры с внешних источников

   
 
Автор Сообщение

older Пол:Муж

10-Сен-2015 07:58



Элементарно / Elementary


Год выпуска: 2012-2015
Жанр: драма, криминал, детектив
Страна: США
Режиссер: Джон Полсон, Гай Ферленд, Сет Манн
В ролях: Джон Дэвид Коулз, Майкл Куэста, Род Холкомб В ролях: Джонни Ли Миллер, Люси Лью, Эйдан Куинн, Джон Майкл Хилл, Даллас Робертс, Мэнни Перез, Джонатан Уолкер, Кристен Буш, Крэйг Уолкер, Майкл Натансон, Шерри Х. Арелл, Уорд Хортон, Дженнифер Феррин, Билл Хек, Кэйси Семашко, Роза Арредондо, Рей Лукас, Кен Маркс, Аса Сомерс, Пол Майкл Вэлли, Янси Ариас, Кейтлинн Бэйли, Эндрю Чемберлен, Майкл Кантримэн, Эрин Дилли
Сюжет фильма:
Никаких каминов, скрипок и лондонских туманов. Америка, наше время. Холмс - не только гениальный сыщик, но и бывший наркоман. Ватсон - не просто женщина-доктор с пикантной внешностью Люси Лиу, но и неплохой аналитик. Вместе они могут горы свернуть. Но сейчас успешный детективный дуэт на грани распада. Смогут ли Холмс и Ватсон друг без друга?

Качество видео: WEB-DLRip

Продолжительность: ~ 00:45:00
Формат: AVI
Видео: XviD, 720х400, 1275 kbps
Аудио: русский, многоголосый закадровый [профессиональный], MP3 2.0, 128-192 kbps

Код:

Общее
Полное имя                               : \Elementary\Season 1\Elementary.S01E01.rus.LostFilm.TV.avi
Формат                                   : AVI
Формат/Информация                        : Audio Video Interleave
Размер файла                             : 465 Мбайт
Продолжительность                        : 45 м.
Общий поток                              : 1416 Кбит/сек
Программа кодирования                    : Nandub v1.0rc2
Библиотека кодирования                   : Nandub build 1853/release

Видео
Идентификатор                            : 0
Формат                                   : MPEG-4 Visual
Профиль формата                          : Simple@L3
Параметр BVOP формата                    : Нет
Параметр QPel формата                    : Нет
Параметр GMC формата                     : Без точки перехода
Параметр матрицы формата                 : Default (H.263)
Идентификатор кодека                     : XVID
Идентификатор кодека/Подсказка           : XviD
Продолжительность                        : 45 м.
Битрейт                                  : 1275 Кбит/сек
Ширина                                   : 720 пикселей
Высота                                   : 400 пикселей
Соотношение сторон                       : 16:9
Частота кадров                           : 23,976 кадра/сек
Цветовое пространство                    : YUV
Субдискретизация насыщенности            : 4:2:0
Битовая глубина                          : 8 бит
Тип развёртки                            : Прогрессивная
Метод сжатия                             : С потерями
Бит/(Пиксели*Кадры)                      : 0.185
Размер потока                            : 419 Мбайт (90%)
Библиотека кодирования                   : XviD 1.2.1 (UTC 2008-12-04)

Аудио
Идентификатор                            : 1
Формат                                   : MPEG Audio
Версия формата                           : Version 1
Профиль формата                          : Layer 3
Режим                                    : Joint stereo
Расширение режима                        : MS Stereo
Идентификатор кодека                     : 55
Идентификатор кодека/Подсказка           : MP3
Продолжительность                        : 45 м.
Вид битрейта                             : Постоянный
Битрейт                                  : 128 Кбит/сек
Каналы                                   : 2 канала
Частота                                  : 48,0 КГц
Метод сжатия                             : С потерями
Размер потока                            : 42,0 Мбайт (9%)
Выравнивание                             : Соединение по промежуткам
Продолжительность промежутка             : 24  мс. (0,58 видеокадр)
Время предзагрузки промежутка            : 480  мс.

Код:

Общее
Полное имя                               : \Elementary\Season 2\Elementary.S02E01.rus.LostFilm.TV.avi
Формат                                   : AVI
Формат/Информация                        : Audio Video Interleave
Размер файла                             : 658 Мбайт
Продолжительность                        : 43 м.
Режим общего битрейта                    : Переменный
Общий поток                              : 2116 Кбит/сек
Программа кодирования                    : Nandub v1.0rc2
Библиотека кодирования                   : Nandub build 1853/release

Видео
Идентификатор                            : 0
Формат                                   : MPEG-4 Visual
Профиль формата                          : Simple@L3
Параметр BVOP формата                    : Нет
Параметр QPel формата                    : Нет
Параметр GMC формата                     : Без точки перехода
Параметр матрицы формата                 : Default (H.263)
Идентификатор кодека                     : XVID
Идентификатор кодека/Подсказка           : XviD
Продолжительность                        : 43 м.
Битрейт                                  : 1915 Кбит/сек
Ширина                                   : 720 пикселей
Высота                                   : 400 пикселей
Соотношение сторон                       : 16:9
Частота кадров                           : 23,976 кадра/сек
Цветовое пространство                    : YUV
Субдискретизация насыщенности            : 4:2:0
Битовая глубина                          : 8 бит
Тип развёртки                            : Прогрессивная
Метод сжатия                             : С потерями
Бит/(Пиксели*Кадры)                      : 0.277
Размер потока                            : 595 Мбайт (90%)
Библиотека кодирования                   : XviD 1.2.1 (UTC 2008-12-04)

Аудио
Идентификатор                            : 1
Формат                                   : MPEG Audio
Версия формата                           : Version 1
Профиль формата                          : Layer 3
Режим                                    : Joint stereo
Расширение режима                        : MS Stereo
Идентификатор кодека                     : 55
Идентификатор кодека/Подсказка           : MP3
Продолжительность                        : 43 м.
Вид битрейта                             : Переменный
Битрейт                                  : 192 Кбит/сек
Каналы                                   : 2 канала
Частота                                  : 48,0 КГц
Метод сжатия                             : С потерями
Размер потока                            : 58,7 Мбайт (9%)
Выравнивание                             : Соединение по промежуткам
Продолжительность промежутка             : 24  мс. (0,58 видеокадр)
Время предзагрузки промежутка            : 496  мс.
Библиотека кодирования                   : LAME3.97b
Настройки программы                      : -m j -V 4 -q 3 -lowpass 18.6 --abr 192

Код:

Общее
Полное имя                               : \Elementary\Season 3\Elementary.S03E01.rus.LostFilm.TV.avi
Формат                                   : AVI
Формат/Информация                        : Audio Video Interleave
Размер файла                             : 418 Мбайт
Продолжительность                        : 43 м.
Режим общего битрейта                    : Переменный
Общий поток                              : 1343 Кбит/сек
Программа кодирования                    : Nandub v1.0rc2
Библиотека кодирования                   : Nandub build 1853/release

Видео
Идентификатор                            : 0
Формат                                   : MPEG-4 Visual
Профиль формата                          : Advanced Simple@L5
Параметр BVOP формата                    : Нет
Параметр QPel формата                    : Нет
Параметр GMC формата                     : Без точки перехода
Параметр матрицы формата                 : Default (H.263)
Идентификатор кодека                     : XVID
Идентификатор кодека/Подсказка           : XviD
Продолжительность                        : 43 м.
Битрейт                                  : 1143 Кбит/сек
Ширина                                   : 720 пикселей
Высота                                   : 400 пикселей
Соотношение сторон                       : 16:9
Частота кадров                           : 23,976 кадра/сек
Цветовое пространство                    : YUV
Субдискретизация насыщенности            : 4:2:0
Битовая глубина                          : 8 бит
Тип развёртки                            : Прогрессивная
Метод сжатия                             : С потерями
Бит/(Пиксели*Кадры)                      : 0.166
Размер потока                            : 356 Мбайт (85%)
Библиотека кодирования                   : XviD 1.2.1 (UTC 2008-12-04)

Аудио
Идентификатор                            : 1
Формат                                   : MPEG Audio
Версия формата                           : Version 1
Профиль формата                          : Layer 3
Режим                                    : Joint stereo
Расширение режима                        : MS Stereo
Идентификатор кодека                     : 55
Идентификатор кодека/Подсказка           : MP3
Продолжительность                        : 43 м.
Вид битрейта                             : Переменный
Битрейт                                  : 192 Кбит/сек
Каналы                                   : 2 канала
Частота                                  : 48,0 КГц
Метод сжатия                             : С потерями
Размер потока                            : 58,4 Мбайт (14%)
Выравнивание                             : Соединение по промежуткам
Продолжительность промежутка             : 24  мс. (0,58 видеокадр)
Время предзагрузки промежутка            : 470  мс.
Библиотека кодирования                   : LAME3.97b
Настройки программы                      : -m j -V 4 -q 3 -lowpass 18.6 --abr 192

Релиз группы:

picpicpicpicpic
Для увеличения картинки щелкните мышкой по превью

Этот торрент недоступен для скачивания без регистрации, однако доступен по публичной magnet-ссылке (источники с публичных трекеров). Перед использованием ссылки прочтите, пожалуйста Пользовательское соглашение, а также как можно дольше оставайтесь на раздаче! Для того, чтобы скачать сам торрент-файл (который видит больше источников), а также для того, чтобы поблагодарить релизера, вам необходимо зарегистрироваться. Если регистрироваться лень - вы можете также попробовать скачать релиз по нашим партнерским ссылкам ниже.

[underverse.su].t58042.torrent
Трекер: Зарегистрирован   [ 10.09.2015 07:58 ]  

Статус: проверено (by makkol at 10.09.2015 10:33)
Поблагодарили: пока никто не поблагодарил...
Тип торрента: публичный - доступные источники с открытых трекеров: 
Размер: 30,13 GB (занимает 6,88 DVDR, для записи нужно 7 болванок DVDR/RW)
 
 
Похожие темы
Форум Тема Автор Торрент Отв. Посл. сооб.
Зарубежные сериалы Элементарно / Elementary / Сезон 1 (1-24 серии из 24) (Джон Полсон, Гай Ферленд, Сет Манн) [2012 г., драма, криминал, детектив, WEB-DLRip] Dub + Original older
107 | 23

0 | 734

3

10.09.2015 07:11

T Зарубежные сериалы Элементарно / Elementary / Сезон 4 (1-23 серии из 24) (Джон Дэвид Коулз, Майкл Куэста, Род Холкомб) [2015 г., драма, криминал, детектив, WEB-DLRip] MVO (LostFilm) Dryn9
0 | 0

0 | 1183

1

06.05.2016 11:56

Зарубежные сериалы [BD / Remux / BDRip / WEB-DL / HDTV 1080/720р] Элементарно / Elementary Сезон 1 / Серии 1-24 (24) (Майкл Куэста) [2012 г., драма, криминал, детектив, WEBDLRip 720p] MVO + Original Чертёнок
0 | 1

0 | 1062

17

23.05.2013 13:06

T Зарубежные сериалы [BD / Remux / BDRip / WEB-DL / HDTV 1080/720р] Элементарно / Elementary / Сезон 4 (1-23 серии из 24) (Джон Дэвид Коулз, Майкл Куэста, Род Холкомб) [2015 г., драма, криминал, детектив, WEB-DLRip 1080p] MVO (LostFilm) + Original Dryn9
0 | 0

0 | 1121

1

06.05.2016 12:10

F_L Пол:Муж

17-Янв-2016 11:53

Друг, а 4ый сезон на 720р можешь выложить?!

Яндекс.Метрика powered by Sphinx


В Н И М А Н И Е
Сайт не распространяет и не хранит электронные версии произведений, а лишь бесплатно и без коммерческой выгоды (не требуя взамен платы,
SMS и т.д.) предоставляет доступ к создаваемому пользователями каталогу ссылок на торрент-файлы, которые содержат только списки хеш-сумм.
Убедительная просьба с жалобами обращаться напрямую к пользователю, разместившему торрент файл.

Вверх