Loading...
Error

Элементарно / Elementary / Сезон 1 (1-24 серии из 24) (Джон Полсон, Гай Ферленд, Сет Манн) [2012 г., драма, криминал, детектив, WEB-DLRip] Dub + Original

Статистика раздачи
Размер:  10,55 GB   |    Зарегистрирован:  1 год 2 месяца   |    Скачан:  3 раза

Полного источника не было: 6 дней

Сидов:  0  |  0 KB/s  ]   Личеров:  0  |  0 KB/s  ]

* - сиды/пиры с внешних источников

   
 
Автор Сообщение

older Пол:Муж

10-Сен-2015 07:11

Элементарно / Elementary / Сезон 1 (1-24 серии из 24)


Год выпуска: 2012
Жанр: драма, криминал, детектив
Страна: США
Режиссер: Джон Полсон, Гай Ферленд, Сет Манн
В ролях: Джонни Ли Миллер, Люси Лью, Эйдан Куинн, Джон Майкл Хилл, Даллас Робертс, Мэнни Перез, Джонатан Уолкер, Кристен Буш, Крэйг Уолкер, Майкл Натансон, Шерри Х. Арелл, Уорд Хортон, Дженнифер Феррин, Билл Хек, Кэйси Семашко, Роза Арредондо, Рей Лукас, Кен Маркс, Аса Сомерс, Пол Майкл Вэлли, Янси Ариас, Кейтлинн Бэйли, Эндрю Чемберлен, Майкл Кантримэн, Эрин Дилли
Сюжет фильма:
Новая интерпретация классического произведения Артура Конана Дойла о Шерлоке Холмсе. Но сюжет сериала будет развиваться не по классическому сценарию, главный герой поменяет не только прописку, он переедет из Лондона в Нью-Йорк, но и эпоху, сюжет будет разворачиваться в наше время. Также зрителей ждет еще один сюрприз, теперь у Шерлока будет не помощник в лице Доктора Ватсона а помощница, роль которой досталось обворожительной Люси Лью. «Элементарно» - современная криминальная драма о дуэте детектива Шерлока Холмса (Джонни Ли Миллер) и доктора Джоан Ватсон (Люси Лю), который решает самые запутанные дела в полицейском департаменте Нью-Йорка.

Качество видео: WEB-DLRip

Продолжительность: ~ 00:45:00
Формат: AVI
Видео: XviD, 720х400, 1106 kbps
Аудио #1: русский, дублированный, MP3 2.0, 128 kbps - Первый канал
Аудио #2: английский, оригинал, MP3 2.0, 128 kbps
Субтитры: тип: внешние, русский, формат: SRT - на не озвученный фрагмент в 24-й серии

Код:

Общее
Полное имя                               : \Элементарно.Первый (Дубляж)\elementary.s01e01.web-dlrip.rus.eng.to4ka.tv.avi
Формат                                   : AVI
Формат/Информация                        : Audio Video Interleave
Размер файла                             : 450 Мбайт
Продолжительность                        : 45 м.
Общий поток                              : 1376 Кбит/сек
Программа кодирования                    : VirtualDubMod 1.6.0.0 SURROUND (build 2560/release)
Библиотека кодирования                   : VirtualDubMod build 2560/release

Видео
Идентификатор                            : 0
Формат                                   : MPEG-4 Visual
Профиль формата                          : Advanced Simple@L5
Параметр BVOP формата                    : 1
Параметр QPel формата                    : Нет
Параметр GMC формата                     : Без точки перехода
Параметр матрицы формата                 : Default (MPEG)
Идентификатор кодека                     : XVID
Идентификатор кодека/Подсказка           : XviD
Продолжительность                        : 45 м.
Битрейт                                  : 1106 Кбит/сек
Ширина                                   : 720 пикселей
Высота                                   : 400 пикселей
Соотношение сторон                       : 16:9
Частота кадров                           : 23,976 кадра/сек
Цветовое пространство                    : YUV
Субдискретизация насыщенности            : 4:2:0
Битовая глубина                          : 8 бит
Тип развёртки                            : Прогрессивная
Метод сжатия                             : С потерями
Бит/(Пиксели*Кадры)                      : 0.160
Размер потока                            : 362 Мбайт (80%)
Библиотека кодирования                   : XviD 64

Аудио #1
Идентификатор                            : 1
Формат                                   : MPEG Audio
Версия формата                           : Version 1
Профиль формата                          : Layer 3
Режим                                    : Joint stereo
Расширение режима                        : MS Stereo
Идентификатор кодека                     : 55
Идентификатор кодека/Подсказка           : MP3
Продолжительность                        : 45 м.
Вид битрейта                             : Постоянный
Битрейт                                  : 128 Кбит/сек
Каналы                                   : 2 канала
Частота                                  : 48,0 КГц
Метод сжатия                             : С потерями
Размер потока                            : 41,9 Мбайт (9%)
Выравнивание                             : Соединение по промежуткам
Продолжительность промежутка             : 42  мс. (1,00 видеокадр)
Время предзагрузки промежутка            : 504  мс.

Аудио #2
Идентификатор                            : 2
Формат                                   : MPEG Audio
Версия формата                           : Version 1
Профиль формата                          : Layer 3
Режим                                    : Joint stereo
Идентификатор кодека                     : 55
Идентификатор кодека/Подсказка           : MP3
Продолжительность                        : 45 м.
Вид битрейта                             : Постоянный
Битрейт                                  : 128 Кбит/сек
Каналы                                   : 2 канала
Частота                                  : 48,0 КГц
Метод сжатия                             : С потерями
Размер потока                            : 41,9 Мбайт (9%)
Выравнивание                             : Соединение по промежуткам
Продолжительность промежутка             : 42  мс. (1,00 видеокадр)
Время предзагрузки промежутка            : 504  мс.
Библиотека кодирования                   : LAME3.98r
Настройки программы                      : -m j -V 4 -q 2 -lowpass 17 -b 128

Релиз группы:

picpicpicpicpic
Для увеличения картинки щелкните мышкой по превью

Этот торрент недоступен для скачивания без регистрации, однако доступен по публичной magnet-ссылке (источники с публичных трекеров). Перед использованием ссылки прочтите, пожалуйста Пользовательское соглашение, а также как можно дольше оставайтесь на раздаче! Для того, чтобы скачать сам торрент-файл (который видит больше источников), а также для того, чтобы поблагодарить релизера, вам необходимо зарегистрироваться. Если регистрироваться лень - вы можете также попробовать скачать релиз по нашим партнерским ссылкам ниже.

[underverse.su].t58041.torrent
Трекер: Зарегистрирован   [ 10.09.2015 07:11 ]  

Статус: проверено (by makkol at 10.09.2015 10:27)
Поблагодарили: пока никто не поблагодарил...
Тип торрента: публичный - доступные источники с открытых трекеров: 
Размер: 10,55 GB (занимает 2,41 DVDR, для записи нужно 3 болванки DVDR/RW)
 
 
Похожие темы
Форум Тема Автор Торрент Отв. Посл. сооб.
Зарубежные сериалы Элементарно / Elementary / Сезоны 1-3 (1-72 серии из 72) (Джон Полсон, Гай Ферленд, Сет Манн) [2012-2015 г., драма, криминал, детектив, WEB-DLRip] MVO older
17 | 22

1 | 917

3

17.01.2016 11:53

T Зарубежные сериалы Элементарно / Elementary / Сезон 4 (1-23 серии из 24) (Джон Дэвид Коулз, Майкл Куэста, Род Холкомб) [2015 г., драма, криминал, детектив, WEB-DLRip] MVO (LostFilm) Dryn9
0 | 0

0 | 1183

1

06.05.2016 11:56

Зарубежные сериалы [BD / Remux / BDRip / WEB-DL / HDTV 1080/720р] Элементарно / Elementary Сезон 1 / Серии 1-24 (24) (Майкл Куэста) [2012 г., драма, криминал, детектив, WEBDLRip 720p] MVO + Original Чертёнок
0 | 1

0 | 1062

17

23.05.2013 13:06

T Зарубежные сериалы [BD / Remux / BDRip / WEB-DL / HDTV 1080/720р] Элементарно / Elementary / Сезон 4 (1-23 серии из 24) (Джон Дэвид Коулз, Майкл Куэста, Род Холкомб) [2015 г., драма, криминал, детектив, WEB-DLRip 1080p] MVO (LostFilm) + Original Dryn9
0 | 0

0 | 1121

1

06.05.2016 12:10


Яндекс.Метрика powered by Sphinx


В Н И М А Н И Е
Сайт не распространяет и не хранит электронные версии произведений, а лишь бесплатно и без коммерческой выгоды (не требуя взамен платы,
SMS и т.д.) предоставляет доступ к создаваемому пользователями каталогу ссылок на торрент-файлы, которые содержат только списки хеш-сумм.
Убедительная просьба с жалобами обращаться напрямую к пользователю, разместившему торрент файл.

Вверх