Loading...
Error

Подозреваемый / В поле зрения / Person of Interest / Сезон 3 (1-23 серии из 23) (Крис Фишер, Ричард Дж. Льюис, Фред Туа) [2013 г., фантастика, боевик, триллер, драма, детектив, WEB-DLRip] MVO

Статистика раздачи
Размер:  9,49 GB   |    Зарегистрирован:  1 год 2 месяца   |    Скачан:  10 раз

Полного источника не было: 3 часа

Сидов:  0  |  0 KB/s  ]   Личеров:  0  |  0 KB/s  ]

* - сиды/пиры с внешних источников

   
 
Автор Сообщение

older Пол:Муж

10-Сен-2015 06:15

Подозреваемый / В поле зрения / Person of Interest / Сезон 3 (1-23 серии)


Год выпуска: 2013
Жанр: фантастика, боевик, триллер, драма, детектив
Страна: США
Режиссер: Крис Фишер, Ричард Дж. Льюис, Фред Туа
В ролях: Джеймс Кэвизел, Майкл Эмерсон, Тараджи П. Хенсон, Эми Экер, Кевин Чэпмен, Роберт Джон Бёрк, Сара Шахи, Энрико Колантони, Бреннан Браун, Ал Сапиенца, Кларк Питерс, Борис МакГайвер, Джей О. Сэндерс, Бретт Каллен, Джон Нолан, Майкл Келли, Энни Пэррис, Дэвид Валчин, Пейдж Турко, Элизабет Марвел, Лесли Одом мл.
Сюжет фильма:
Предполагаемо погибший бывший агент ЦРУ Риз объединяется с таинственным миллионером чтобы предотвращать преступления. Подготовка Риза в проведении операций под прикрытием привлекает внимание миллионера Финча, гения-программиста, который изобрел программу, позволяющую предсказывать преступные склонности людей на базе анализа поведения. Используя последние достижения техники, эти двое часто преступают закон, используя навыки Риза и бесконечное богатство Финча, и останавливают преступников еще до совершения преступления. Действия Риза привлекают к себе внимание детектива Картер из отдела убийств и полицейского Фуско, которого Риз использует в своих целях. Риз и Финч понимают, что правильный человек с правильной информацией в нужное время и в нужном месте может изменить все.

Качество видео: WEB-DLRip

Продолжительность: ~ 00:43:00
Формат: AVI
Видео: XviD, 720х400, 1236 kbps
Аудио: русский, многоголосый закадровый [профессиональный], MP3 2.0, 192 kbps

Код:

Общее
Полное имя                               : \Person.of.Interest.S03.rus.LostFilm.TV\Person.of.Interest.S03E01.rus.LostFilm.TV.avi
Формат                                   : AVI
Формат/Информация                        : Audio Video Interleave
Размер файла                             : 448 Мбайт
Продолжительность                        : 43 м.
Режим общего битрейта                    : Переменный
Общий поток                              : 1436 Кбит/сек
Программа кодирования                    : Nandub v1.0rc2
Библиотека кодирования                   : Nandub build 1853/release

Видео
Идентификатор                            : 0
Формат                                   : MPEG-4 Visual
Профиль формата                          : Simple@L3
Параметр BVOP формата                    : Нет
Параметр QPel формата                    : Нет
Параметр GMC формата                     : Без точки перехода
Параметр матрицы формата                 : Default (H.263)
Идентификатор кодека                     : XVID
Идентификатор кодека/Подсказка           : XviD
Продолжительность                        : 43 м.
Битрейт                                  : 1236 Кбит/сек
Ширина                                   : 720 пикселей
Высота                                   : 400 пикселей
Соотношение сторон                       : 16:9
Частота кадров                           : 23,976 кадра/сек
Цветовое пространство                    : YUV
Субдискретизация насыщенности            : 4:2:0
Битовая глубина                          : 8 бит
Тип развёртки                            : Прогрессивная
Метод сжатия                             : С потерями
Бит/(Пиксели*Кадры)                      : 0.179
Размер потока                            : 386 Мбайт (86%)
Библиотека кодирования                   : XviD 1.2.1 (UTC 2008-12-04)

Аудио
Идентификатор                            : 1
Формат                                   : MPEG Audio
Версия формата                           : Version 1
Профиль формата                          : Layer 3
Режим                                    : Joint stereo
Расширение режима                        : MS Stereo
Идентификатор кодека                     : 55
Идентификатор кодека/Подсказка           : MP3
Продолжительность                        : 43 м.
Вид битрейта                             : Переменный
Битрейт                                  : 192 Кбит/сек
Каналы                                   : 2 канала
Частота                                  : 48,0 КГц
Метод сжатия                             : С потерями
Размер потока                            : 58,5 Мбайт (13%)
Выравнивание                             : Соединение по промежуткам
Продолжительность промежутка             : 24  мс. (0,58 видеокадр)
Время предзагрузки промежутка            : 496  мс.
Библиотека кодирования                   : LAME3.97b
Настройки программы                      : -m j -V 4 -q 3 -lowpass 18.6 --abr 192

Релиз группы:

picpicpicpicpic
Для увеличения картинки щелкните мышкой по превью

Этот торрент недоступен для скачивания без регистрации, однако доступен по публичной magnet-ссылке (источники с публичных трекеров). Перед использованием ссылки прочтите, пожалуйста Пользовательское соглашение, а также как можно дольше оставайтесь на раздаче! Для того, чтобы скачать сам торрент-файл (который видит больше источников), а также для того, чтобы поблагодарить релизера, вам необходимо зарегистрироваться. Если регистрироваться лень - вы можете также попробовать скачать релиз по нашим партнерским ссылкам ниже.

[underverse.su].t58039.torrent
Трекер: Зарегистрирован   [ 10.09.2015 06:15 ]  

Статус: проверено (by makkol at 10.09.2015 10:21)
Поблагодарили: 1 человек
Тип торрента: публичный - доступные источники с открытых трекеров: 
Размер: 9,49 GB (занимает 2,17 DVDR, для записи нужно 3 болванки DVDR/RW)
 
 
Похожие темы
Форум Тема Автор Торрент Отв. Посл. сооб.
Зарубежное кино [DVDRip, Low-Res HDRip, и т.д.] Подозреваемый Икс / Suspect X / Yongeuija X / Perfect Number (Пан Ын Чжин / Eun-jin Pang) [2012 г., триллер, драма, HDRip] DVO (den904, DeadSno) 90ytr90
1 | 0

0 | 890

5

11.03.2013 19:01

Зарубежное кино [DVDRip, Low-Res HDRip, и т.д.] Подозреваемый / The Suspect (Стюарт Коннелли) [2013 г., триллер, HDRip] MVO makkol
14 | 1

0 | 793

29

26.03.2016 11:20

Зарубежные сериалы Подозреваемый / В поле зрения / Person of Interest / Сезон 1 (1-23 серии из 23) (Крис Фишер, Ричард Дж. Льюис, Фред Туа) [2011 г., фантастика, боевик, триллер, драма, детектив, HDTVRip] MVO older
92 | 29

1 | 527

14

28.03.2016 07:32

Зарубежные сериалы Подозреваемый / В поле зрения / Person of Interest / Сезон 2 (1-22 серии из 22) (Крис Фишер, Ричард Дж. Льюис, Фред Туа) [2012 г., фантастика, боевик, триллер, драма, детектив, WEB-DLRip] MVO +... older
24 | 0

0 | 356

11

10.09.2015 05:22

Зарубежные сериалы Подозреваемый / В поле зрения / Person of Interest / Сезон 4 (1-22 серии из 22) (Крис Фишер, Ричард Дж. Льюис, Фред Туа) [2014 г., фантастика, боевик, триллер, драма, детектив, WEB-DLRip] MVO older
10 | 0

0 | 431

8

10.09.2015 06:34


Яндекс.Метрика powered by Sphinx


В Н И М А Н И Е
Сайт не распространяет и не хранит электронные версии произведений, а лишь бесплатно и без коммерческой выгоды (не требуя взамен платы,
SMS и т.д.) предоставляет доступ к создаваемому пользователями каталогу ссылок на торрент-файлы, которые содержат только списки хеш-сумм.
Убедительная просьба с жалобами обращаться напрямую к пользователю, разместившему торрент файл.

Вверх